<?xml version="1.0" standalone="no"?>
<!DOCTYPE svg PUBLIC "-//W3C//DTD SVG 1.1//EN" "http://www.w3.org/Graphics/SVG/1.1/DTD/svg11.dtd" >
<svg xmlns="http://www.w3.org/2000/svg">
<metadata>Generated by IcoMoon</metadata>
<defs>
<font id="thegem-header" horiz-adv-x="1024">
<font-face units-per-em="1024" ascent="960" descent="-64" />
<missing-glyph horiz-adv-x="1024" />
<glyph unicode="&#x20;" horiz-adv-x="512" d="" />
<glyph unicode="&#xe600;" glyph-name="adjust-vert" d="M320 704v96c0 17.664-14.336 32-32 32s-32-14.336-32-32v-96c-35.328 0-64-28.672-64-64v-64c0-35.328 28.672-64 64-64v-416c0-17.664 14.336-32 32-32s32 14.336 32 32v416c35.328 0 64 28.672 64 64v64c0 35.328-28.672 64-64 64zM256 640h64v-64h-64v64zM576 384v416c0 17.664-14.336 32-32 32s-32-14.336-32-32v-416c-35.328 0-64-28.672-64-64v-64c0-35.328 28.672-64 64-64v-96c0-17.664 14.336-32 32-32s32 14.336 32 32v96c35.328 0 64 28.672 64 64v64c0 35.328-28.672 64-64 64zM512 320h64v-64h-64v64zM832 576v224c0 17.664-14.336 32-32 32s-32-14.336-32-32v-224c-35.328 0-64-28.672-64-64v-64c0-35.328 28.672-64 64-64v-288c0-17.664 14.336-32 32-32s32 14.336 32 32v288c35.328 0 64 28.672 64 64v64c0 35.328-28.672 64-64 64zM768 512h64v-64h-64v64z" />
<glyph unicode="&#xe601;" glyph-name="archive" d="M960 832h-896c-35.328 0-64-28.672-64-64v-128h1024v128c0 35.328-28.672 64-64 64zM960 704h-896v64h896v-64zM64 0c0-35.328 28.672-64 64-64h768c35.328 0 64 28.672 64 64v576h-896v-576zM128 512h768v-512h-768v512zM672 448h-320c-17.664 0-32-14.336-32-32s14.336-32 32-32h320c17.664 0 32 14.336 32 32s-14.336 32-32 32z" />
<glyph unicode="&#xe602;" glyph-name="arrow_carrot-2down" d="M702.592 436.352l-191.744-169.6-191.744 169.6c-12.544 12.544-32.96 12.544-45.504 0s-12.544-32.96 0-45.504l214.080-189.376c6.4-6.4 14.784-9.472 23.168-9.344 8.384-0.128 16.768 2.88 23.168 9.28l214.080 189.376c12.544 12.544 12.544 32.96 0 45.504s-32.96 12.608-45.504 0.064zM748.096 665.856c-12.544 12.544-32.96 12.544-45.504 0l-191.744-169.6-191.744 169.6c-12.608 12.544-33.024 12.544-45.568 0s-12.544-32.96 0-45.504l214.080-189.376c6.4-6.4 14.784-9.472 23.168-9.344 8.384-0.128 16.832 2.944 23.168 9.344l214.080 189.376c12.672 12.544 12.672 32.896 0.064 45.504z" />
<glyph unicode="&#xe603;" glyph-name="arrow_carrot-2left" d="M265.408 425.984l189.376-214.080c12.544-12.544 32.96-12.544 45.504 0s12.544 32.96 0 45.504l-169.6 191.744 169.6 191.744c12.544 12.544 12.544 32.96 0 45.504s-32.96 12.544-45.504 0l-189.376-214.016c-6.4-6.4-9.408-14.784-9.344-23.168-0.064-8.384 2.944-16.832 9.344-23.232zM729.856 686.464c-12.544 12.544-32.96 12.544-45.504 0l-189.44-214.080c-6.4-6.4-9.472-14.784-9.344-23.168-0.064-8.384 2.944-16.832 9.344-23.232l189.376-214.080c12.544-12.544 32.96-12.544 45.504 0s12.544 32.96 0 45.504l-169.6 191.744 169.6 191.744c12.608 12.608 12.608 33.024 0.064 45.568z" />
<glyph unicode="&#xe604;" glyph-name="arrow_carrot-2right" d="M758.592 470.016l-189.376 214.080c-12.544 12.544-32.96 12.544-45.504 0s-12.544-32.96 0-45.504l169.6-191.744-169.6-191.744c-12.544-12.544-12.544-32.96 0-45.504s32.96-12.544 45.504 0l189.376 214.080c6.4 6.4 9.472 14.784 9.344 23.168 0.064 8.384-2.944 16.768-9.344 23.168zM294.144 209.536c12.544-12.544 32.96-12.544 45.504 0l189.376 214.080c6.4 6.4 9.472 14.784 9.344 23.168 0.128 8.384-2.944 16.832-9.344 23.168l-189.312 214.144c-12.544 12.544-32.96 12.544-45.504 0s-12.544-32.96 0-45.504l169.6-191.744-169.6-191.744c-12.608-12.608-12.608-33.024-0.064-45.568z" />
<glyph unicode="&#xe605;" glyph-name="arrow_carrot-2up" d="M750.464 505.216l-214.080 189.376c-6.4 6.4-14.784 9.472-23.168 9.344-8.448 0.128-16.832-2.944-23.232-9.344l-214.080-189.376c-12.544-12.544-12.544-32.96 0-45.504s32.96-12.544 45.504 0l191.744 169.664 191.744-169.664c12.544-12.544 32.96-12.544 45.504 0 12.672 12.544 12.672 32.896 0.064 45.504zM536.384 465.088c-6.4 6.4-14.784 9.472-23.168 9.344-8.448 0.128-16.832-2.944-23.232-9.344l-214.080-189.376c-12.544-12.544-12.544-32.96 0-45.504s32.96-12.544 45.504 0l191.744 169.6 191.744-169.6c12.544-12.544 32.96-12.544 45.504 0s12.544 32.96 0 45.504l-214.016 189.376z" />
<glyph unicode="&#xe606;" glyph-name="arrow_carrot-down" d="M729.024 518.4l-185.024-185.024-185.024 185.024c-12.48 12.48-32.768 12.48-45.248 0s-12.48-32.768 0-45.248l207.552-207.552c6.272-6.272 14.528-9.408 22.72-9.344 8.256 0 16.448 3.072 22.72 9.344l207.552 207.552c12.48 12.48 12.48 32.768 0 45.248s-32.768 12.48-45.248 0z" />
<glyph unicode="&#xe607;" glyph-name="arrow_carrot-down2" d="M729.024 518.4l-185.024-185.024-185.024 185.024c-12.48 12.48-32.768 12.48-45.248 0s-12.48-32.768 0-45.248l207.552-207.552c6.272-6.272 14.528-9.408 22.72-9.344 8.256 0 16.448 3.072 22.72 9.344l207.552 207.552c12.48 12.48 12.48 32.768 0 45.248s-32.768 12.48-45.248 0zM546.304 891.456c-263.808 0-477.696-213.888-477.696-477.696-0.064-263.872 213.824-477.76 477.696-477.76 263.808 0 477.696 213.888 477.696 477.696 0 263.872-213.888 477.76-477.696 477.76zM546.304 0c-228.096 0-413.696 185.6-413.696 413.696s185.6 413.696 413.696 413.696c228.096 0.064 413.696-185.536 413.696-413.696 0-228.096-185.6-413.696-413.696-413.696z" />
<glyph unicode="&#xe608;" glyph-name="arrow_carrot-left" d="M393.6 393.28l207.552-207.552c12.48-12.48 32.768-12.48 45.248 0s12.48 32.768 0 45.248l-185.024 185.024 185.024 185.024c12.48 12.48 12.48 32.768 0 45.248s-32.768 12.48-45.248 0l-207.552-207.552c-6.272-6.272-9.344-14.464-9.344-22.72s3.072-16.448 9.344-22.72z" />
<glyph unicode="&#xe609;" glyph-name="arrow_carrot-left2" d="M646.4 646.272c-12.48 12.48-32.768 12.48-45.248 0l-207.552-207.552c-6.272-6.272-9.344-14.464-9.344-22.72s3.072-16.448 9.344-22.72l207.552-207.552c12.48-12.48 32.768-12.48 45.248 0s12.48 32.768 0 45.248l-185.024 185.024 185.024 185.024c12.48 12.48 12.48 32.768 0 45.248zM544 896c-265.088 0-480-214.912-480-480s214.912-480 480-480 480 214.912 480 480-214.912 480-480 480zM544 0c-229.376 0-416 186.624-416 416s186.624 416 416 416 416-186.624 416-416-186.624-416-416-416z" />
<glyph unicode="&#xe60a;" glyph-name="arrow_carrot-right" d="M441.6 185.728c12.48-12.48 32.768-12.48 45.248 0l207.552 207.552c6.272 6.272 9.408 14.528 9.344 22.72 0 8.256-3.072 16.448-9.344 22.72l-207.552 207.552c-12.48 12.48-32.768 12.48-45.248 0s-12.48-32.768 0-45.248l185.024-185.024-185.024-185.024c-12.48-12.48-12.48-32.768 0-45.248z" />
<glyph unicode="&#xe60b;" glyph-name="arrow_carrot-right2" d="M694.4 438.72l-207.552 207.552c-12.48 12.48-32.768 12.48-45.248 0s-12.48-32.768 0-45.248l185.024-185.024-185.024-185.024c-12.48-12.48-12.48-32.768 0-45.248s32.768-12.48 45.248 0l207.552 207.552c6.272 6.272 9.408 14.528 9.344 22.72 0 8.256-3.072 16.448-9.344 22.72zM546.304 891.392c-263.808 0-477.696-213.888-477.696-477.696s213.888-477.696 477.696-477.696 477.696 213.888 477.696 477.696-213.888 477.696-477.696 477.696zM546.304 0c-228.096 0-413.696 185.6-413.696 413.696s185.6 413.696 413.696 413.696 413.696-185.6 413.696-413.696-185.6-413.696-413.696-413.696z" />
<glyph unicode="&#xe60c;" glyph-name="arrow_carrot-up" d="M358.976 313.6l185.024 185.024 185.024-185.024c12.48-12.48 32.768-12.48 45.248 0s12.48 32.768 0 45.248l-207.552 207.552c-6.272 6.272-14.464 9.344-22.72 9.344s-16.448-3.072-22.72-9.344l-207.552-207.552c-12.48-12.48-12.48-32.768 0-45.248s32.768-12.48 45.248 0z" />
<glyph unicode="&#xe60d;" glyph-name="arrow_carrot-up2" d="M566.72 566.4c-6.272 6.272-14.464 9.344-22.72 9.344s-16.448-3.072-22.72-9.344l-207.552-207.552c-12.48-12.48-12.48-32.768 0-45.248s32.768-12.48 45.248 0l185.024 185.024 185.024-185.024c12.48-12.48 32.768-12.48 45.248 0s12.48 32.768 0 45.248l-207.552 207.552zM546.112 891.712c-263.936 0-477.888-213.952-477.888-477.888s214.016-477.824 477.888-477.824 477.888 213.952 477.888 477.888-213.952 477.824-477.888 477.824zM546.112 0c-228.224 0-413.888 185.664-413.888 413.888s185.664 413.888 413.888 413.888 413.888-185.728 413.888-413.888-185.664-413.888-413.888-413.888z" />
<glyph unicode="&#xe60e;" glyph-name="book" d="M865.344 960h-704c-88.32 0-159.808-70.976-161.088-158.976l-0.256 0.32v-704c0-89.088 72.256-161.344 161.344-161.344h544c35.328 0 62.656 28.672 62.656 64v672c0 17.664-12.992 32-30.656 32h-576c-53.696 0-97.344 41.024-97.344 94.656 0 53.696 43.648 97.344 97.344 97.344h670.656v-736c0-17.664 15.68-32 33.344-32s30.656 14.336 30.656 32v768c0 17.664-12.992 32-30.656 32zM161.344 640h542.72l1.28-640h-544c-53.696 0-97.344 43.648-97.344 97.344v573.952c26.88-19.712 60.48-31.296 97.344-31.296z" />
<glyph unicode="&#xe60f;" glyph-name="cart1" horiz-adv-x="1037" d="M192 0c0-35.346 28.654-64 64-64s64 28.654 64 64v0c0 35.346-28.654 64-64 64s-64-28.654-64-64v0zM768 0c0-35.346 28.654-64 64-64s64 28.654 64 64v0c0 35.346-28.654 64-64 64s-64-28.654-64-64v0zM-1.856 800c0-17.664 14.336-32 32-32h66.496l39.744-169.984 55.616-278.016c0-2.304 1.088-4.288 1.344-6.528l-32.576-146.56c-2.112-9.472 0.192-19.392 6.272-26.944 6.080-7.616 15.232-11.968 24.96-11.968h726.016c17.664 0 32 14.336 32 32s-14.336 32-32 32h-686.080l14.656 65.92c3.2-0.512 6.080-1.92 9.408-1.92h583.36c35.328 0 56.64 6.976 73.664 48l103.936 318.848c18.048 57.152-21.568 81.152-56.96 81.152h-768c-4.992 0-9.344-1.728-14.016-2.816l-24.832 106.112c-3.392 14.464-16.256 24.704-31.168 24.704h-91.84c-17.728 0-32-14.336-32-32zM193.28 640h761.92l-102.144-313.536c-1.216-2.752-2.24-4.736-3.008-6.080-2.112-0.192-5.44-0.384-10.688-0.384h-583.36v6.336l-1.216 6.208-61.504 307.456z" />
<glyph unicode="&#xe610;" glyph-name="check1" d="M441.216 141.184c1.28-1.024 2.048-2.432 3.392-3.392 1.92-1.28 4.096-1.536 6.144-2.432 2.432-1.152 4.8-2.24 7.36-2.944 2.496-0.64 4.928-0.96 7.488-1.152 3.648-0.384 7.168-0.384 10.752 0.128 1.472 0.256 2.88 0.64 4.352 1.024 4.416 1.088 8.512 2.816 12.544 5.248 0.704 0.448 1.28 0.96 1.984 1.408 2.624 1.792 5.44 3.136 7.68 5.568 1.6 1.728 2.304 3.968 3.584 5.888 0.064 0.064 0.192 0.128 0.192 0.192l381.376 611.264c13.568 20.672 7.744 48.448-12.992 62.016s-48.448 7.744-62.016-12.992l-352.256-564.544-194.816 189.504c-18.176 16.832-46.464 15.744-63.296-2.432-16.768-18.176-15.68-46.528 2.496-63.296l234.368-228.032c0.448-0.448 1.088-0.576 1.664-1.024z" />
<glyph unicode="&#xe611;" glyph-name="check2" d="M514.688 960c-282.752 0-512-229.248-512-512s229.248-512 512-512 512 229.248 512 512-229.248 512-512 512zM514.688 0c-247.040 0-448 200.96-448 448s200.96 448 448 448 448-200.96 448-448-201.024-448-448-448zM738.944 651.648c-20.672 13.568-48.448 7.744-62.016-12.992l-216.064-330.176-103.296 95.616c-18.176 16.768-46.528 15.68-63.36-2.496s-15.68-46.464 2.496-63.296l142.784-132.096c0.512-0.448 1.152-0.576 1.664-1.024 1.28-1.024 2.048-2.432 3.392-3.392 1.92-1.28 4.096-1.536 6.144-2.432 2.432-1.152 4.8-2.24 7.36-2.944 2.496-0.64 4.928-0.96 7.488-1.152 3.648-0.384 7.168-0.384 10.752 0.128 1.472 0.256 2.88 0.64 4.352 1.024 4.416 1.088 8.512 2.816 12.544 5.248 0.704 0.448 1.28 0.96 1.984 1.408 2.624 1.792 5.44 3.136 7.68 5.568 1.6 1.728 2.304 3.968 3.584 5.888 0.064 0.064 0.192 0.128 0.192 0.192l245.248 374.848c13.568 20.736 7.744 48.512-12.928 62.080z" />
<glyph unicode="&#xe612;" glyph-name="clock" horiz-adv-x="1049" d="M546.112 891.712c-122.304 0-244.608-46.656-337.92-139.968-186.624-186.624-186.624-489.216 0-675.776 93.376-93.312 215.616-139.968 337.92-139.968s244.608 46.656 337.92 139.968c186.624 186.624 186.624 489.216 0 675.776-93.312 93.312-215.616 139.968-337.92 139.968zM838.784 121.216c-78.144-78.144-182.080-121.216-292.672-121.216-110.528 0-214.464 43.072-292.672 121.216-78.144 78.144-121.216 182.080-121.216 292.672s43.072 214.464 121.216 292.672c78.144 78.144 182.080 121.216 292.672 121.216 110.528 0 214.464-43.072 292.672-121.216s121.216-182.144 121.216-292.672-43.072-214.528-121.216-292.672zM736 448h-160v224.448c0 17.664-14.336 32-32 32s-32-14.336-32-32v-256.256c0 0 0-0.064 0-0.064v-0.128c0-17.664 14.336-32 32-32h192c17.664 0 32 14.336 32 32s-14.336 32-32 32z" />
<glyph unicode="&#xe613;" glyph-name="close1" d="M321.6 193.6c12.48-12.48 32.768-12.48 45.248 0l177.152 177.152 177.152-177.152c12.48-12.48 32.768-12.48 45.248 0s12.48 32.768 0 45.248l-177.152 177.152 177.152 177.152c12.48 12.48 12.48 32.768 0 45.248s-32.768 12.48-45.248 0l-177.152-177.152-177.152 177.152c-12.48 12.48-32.768 12.48-45.248 0s-12.48-32.768 0-45.248l177.152-177.152-177.152-177.152c-12.48-12.48-12.48-32.768 0-45.248z" />
<glyph unicode="&#xe614;" glyph-name="close2" d="M544 896c-265.088 0-480-214.912-480-480s214.912-480 480-480 480 214.912 480 480-214.912 480-480 480zM544 0c-229.376 0-416 186.624-416 416s186.624 416 416 416 416-186.624 416-416-186.624-416-416-416zM721.152 638.4l-175.936-175.936-157.76 175.936c-12.48 12.48-32.768 12.48-45.248 0s-12.48-32.768 0-45.248l157.824-175.936-178.368-178.368c-12.48-12.48-12.48-32.768 0-45.248s32.768-12.48 45.248 0l175.936 175.936 157.824-175.936c12.48-12.48 32.768-12.48 45.248 0s12.48 32.768 0 45.248l-157.888 175.936 178.368 178.368c12.48 12.48 12.48 32.768 0 45.248s-32.768 12.48-45.248 0z" />
<glyph unicode="&#xe615;" glyph-name="cloud" d="M832 448c-2.24 0-4.352-0.576-6.528-0.64 4.288 20.864 6.528 42.496 6.528 64.64 0 176.704-143.296 320-320 320s-320-143.296-320-320c0-1.088 0.32-2.112 0.32-3.2-108.544-15.488-192.32-107.968-192.32-220.8 0-112.768 83.584-205.12 192-220.8v-3.2h640c106.048 0 192 85.952 192 192s-85.952 192-192 192zM832 128h-619.904c-3.52 1.152-7.168 2.048-10.944 2.56-78.208 11.264-137.152 78.976-137.152 157.44 0 78.592 59.072 146.24 137.344 157.44 31.808 4.544 55.296 31.936 54.976 64 0 1.92-0.128 3.84-0.32 5.696 1.728 139.776 115.904 252.864 256 252.864 141.184 0 256-114.816 256-256 0-17.408-1.792-34.816-5.248-51.776-3.968-19.2 1.152-39.168 13.824-54.144 12.16-14.4 30.080-22.656 48.896-22.656 0.768 0 1.472 0 2.24 0.064 1.408-0.064 4.416 0.192 6.912 0.512 69.376-1.408 125.376-58.304 125.376-128 0-70.592-57.408-128-128-128z" />
<glyph unicode="&#xe616;" glyph-name="cloud-download" d="M837.312 448c59.776 137.28 22.912 224.576-7.104 266.624-45.568 63.808-128.576 98.816-201.472 84.8-126.72-24.192-180.736-110.080-180.736-287.424v-148.096l-74.112 74.112c-12.48 12.48-32.768 12.48-45.248 0s-12.48-32.768 0-45.248l128.768-128.704c6.464-6.464 14.976-9.408 23.424-9.216 8.448-0.192 16.96 2.752 23.424 9.216l129.408 129.344c12.48 12.48 12.48 32.768 0 45.248s-32.768 12.48-45.248 0l-76.416-76.352v149.696c0 184.576 63.552 212.096 128.64 224.576 41.792 7.68 102.272-9.856 137.408-59.136 43.008-60.096 34.752-149.248-23.232-250.88-6.144-10.816-5.504-24.192 1.664-34.304s19.776-15.232 31.744-13.056c7.744 1.344 30.848 4.864 45.44 4.864 69.696 0 126.336-57.408 126.336-128.064 0-70.592-57.408-128-128-128l-635.328-0.384c-74.368 11.008-132.672 81.472-132.672 160.384 0 78.592 59.008 146.24 137.344 157.44l27.52 3.968c15.744 2.24 27.456 15.744 27.456 31.68l-0.512 34.048c0.192 114.624 70.848 208.832 168.192 224 17.408 2.752 29.376 19.072 26.688 36.544-2.752 17.472-18.688 29.312-36.608 26.688-128.64-20.032-222.080-140.8-222.272-287.104 0-0.064 0.512-6.464 0.512-6.464v0c-109.632-15.68-192.32-110.592-192.32-220.8 0-111.744 80.512-207.872 192-224h640c105.856 0 192 86.144 192 192 0 104.704-83.456 190.080-186.688 192z" />
<glyph unicode="&#xe617;" glyph-name="cloud-upload" d="M833.664 448.064c-2.752 0-5.44 0-8.064-0.064 4.224 21.056 6.4 42.56 6.4 64 0 176.448-143.552 320-320 320-176.32 0-320-142.144-320.192-316.736 0-0.064 0.512-6.464 0.512-6.464v0c-109.632-15.68-192.32-110.592-192.32-220.8 0-111.744 80.512-207.872 192-224h160c17.664 0 32 14.336 32 32s-14.336 32-32 32l-155.328-0.32c-74.368 10.944-132.672 81.408-132.672 160.32 0 78.592 59.008 146.24 137.344 157.44l27.52 3.968c15.744 2.24 27.456 15.744 27.456 31.68l-0.512 34.048c0.192 139.456 115.072 252.864 256.192 252.864 141.184 0 256-114.816 256-256 0-17.344-1.728-34.816-5.248-51.776l-8.448-40.704c-2.112-10.176 0.896-20.672 7.936-28.288 7.040-7.552 17.152-11.456 27.648-9.856 0.704 0.064 20.736 2.688 43.776 2.688 69.696 0 126.336-57.408 126.336-128.064 0-70.592-57.408-128-128-128h-224c-89.6 0-95.68 53.696-96 64v212.352l75.712-75.648c12.48-12.48 32.768-12.48 45.248 0s12.48 32.768 0 45.248l-128.768 128.704c-6.272 6.272-14.528 9.344-22.784 9.344-0.512 0-0.896 0.256-1.408 0.256-9.216 0-17.344-3.968-23.168-10.176l-128.896-128.768c-12.48-12.48-12.48-32.768 0-45.248s32.768-12.48 45.248 0l74.816 74.752v-210.816c0-44.224 33.408-128 160-128h224c105.856 0 192 86.144 192 192s-85.376 192.064-190.336 192.064z" />
<glyph unicode="&#xe618;" glyph-name="comment" d="M60.736 19.776c5.248-11.264 16.576-18.432 28.992-18.432 91.84 0 169.536 22.336 257.792 74.368 42.816-6.784 127.36-15.168 164.48-15.168 280.192 0 508.096 187.072 508.096 417.088s-227.904 417.024-508.096 417.024-508.096-187.008-508.096-417.024c0-108.416 52.288-213.184 144.32-290.816-20.864-47.36-48.704-92.032-83.008-132.928-7.936-9.6-9.728-22.912-4.48-34.112zM67.904 477.632c0 194.688 199.232 353.088 444.096 353.088s444.096-158.4 444.096-353.088-199.232-353.088-444.096-353.088c-36.736 0-132.352 9.856-164.672 16.128-7.808 1.408-15.936-0.064-22.72-4.096-59.648-36.48-111.68-57.344-167.36-66.176 24 36.352 43.968 74.752 59.52 114.752 5.184 13.376 0.96 28.48-10.496 37.12-89.28 67.584-138.368 158.336-138.368 255.36z" />
<glyph unicode="&#xe619;" glyph-name="creditcard" d="M960 832h-896c-35.328 0-64-28.672-64-64v-640c0-35.328 28.672-64 64-64h896c35.328 0 64 28.672 64 64v640c0 35.328-28.672 64-64 64zM960 128h-896v384h896v-384zM64 637.312v130.688h896v-130.688h-896zM160 192h320c17.664 0 32 14.336 32 32s-14.336 32-32 32h-320c-17.664 0-32-14.336-32-32s14.336-32 32-32zM576 224c0-17.673 14.327-32 32-32s32 14.327 32 32v0c0 17.673-14.327 32-32 32s-32-14.327-32-32v0zM704 224c0-17.673 14.327-32 32-32s32 14.327 32 32v0c0 17.673-14.327 32-32 32s-32-14.327-32-32v0zM832 224c0-17.673 14.327-32 32-32s32 14.327 32 32v0c0 17.673-14.327 32-32 32s-32-14.327-32-32v0z" />
<glyph unicode="&#xe61a;" glyph-name="drawer" d="M809.984 896h-601.984c-35.328 0-64-24-80-64l-128-446.976v-353.024c0-17.664 14.336-32 32-32h960c17.664 0 32 14.336 32 32v349.056l-128 450.944c-17.984 40-50.624 64-86.016 64zM188.48 810.688c2.944 6.592 10.432 21.312 19.52 21.312h601.984c8.768 0 18.88-9.024 25.984-22.784l120.64-425.216h-284.608c-17.664 0-32-14.336-32-32v-96h-256v96c0 17.664-14.336 32-32 32h-285.696l122.176 426.688zM960 64h-896v256h256v-96c0-17.664 14.336-32 32-32h320c17.664 0 32 14.336 32 32v96h256v-256z" />
<glyph unicode="&#xe61b;" glyph-name="drive" d="M960 832c-3.968 62.656-57.28 128-128 128h-640c-70.72 0-124.032-65.344-128-128l-64-685.312c0-3.008 0.704-6.72 0.896-9.92-0.192-2.944-0.896-5.76-0.896-8.768v-64c0-70.72 57.28-128 128-128h768c70.72 0 128 57.28 128 128v64c0 3.008-0.704 5.824-0.896 8.704 0.192 3.264 0.896 6.976 0.896 9.984l-64 685.312zM64 64v64c0 35.264 28.736 64 64 64h768c35.264 0 64-28.736 64-64v-64c0-35.264-28.736-64-64-64h-768c-35.264 0-64 28.736-64 64zM127.872 827.904c1.984 31.488 30.464 68.096 64.128 68.096h640c33.664 0 62.144-36.608 64.256-69.952l54.4-582.784c-16.576 7.936-35.008 12.736-54.656 12.736h-768c-19.648 0-38.080-4.8-54.72-12.736l54.592 584.64zM832 96c0-17.673 14.327-32 32-32s32 14.327 32 32v0c0 17.673-14.327 32-32 32s-32-14.327-32-32v0zM704 96c0-17.673 14.327-32 32-32s32 14.327 32 32v0c0 17.673-14.327 32-32 32s-32-14.327-32-32v0zM160 64h448c17.664 0 32 14.336 32 32s-14.336 32-32 32h-448c-17.664 0-32-14.336-32-32s14.336-32 32-32z" />
<glyph unicode="&#xe61c;" glyph-name="el-ul" d="M352 448h512c17.664 0 32 14.336 32 32s-14.336 32-32 32h-512c-17.664 0-32-14.336-32-32s14.336-32 32-32zM352 704h512c17.664 0 32 14.336 32 32s-14.336 32-32 32h-512c-17.664 0-32-14.336-32-32s14.336-32 32-32zM352 192h512c17.664 0 32 14.336 32 32s-14.336 32-32 32h-512c-17.664 0-32-14.336-32-32s14.336-32 32-32zM128 736c0-17.673 14.327-32 32-32s32 14.327 32 32v0c0 17.673-14.327 32-32 32s-32-14.327-32-32v0zM128 480c0-17.673 14.327-32 32-32s32 14.327 32 32v0c0 17.673-14.327 32-32 32s-32-14.327-32-32v0zM128 224c0-17.673 14.327-32 32-32s32 14.327 32 32v0c0 17.673-14.327 32-32 32s-32-14.327-32-32v0z" />
<glyph unicode="&#xe61d;" glyph-name="error-triangle" d="M1012.48 30.144l-444.032 832c-11.072 20.8-32.768 33.856-56.384 33.856h-0.064c-23.616 0-45.248-12.992-56.384-33.792l-446.016-832c-10.624-19.84-10.048-43.776 1.472-63.104 11.584-19.264 32.448-31.104 54.912-31.104h889.984c22.464 0 43.328 11.776 54.912 31.104 11.584 19.264 12.16 43.2 1.6 63.040zM65.984 0l446.016 832 444.032-832h-890.048zM448 510.976v-192c0-35.328 28.672-64 64-64s64 28.672 64 64v192c0 35.328-28.672 64-64 64s-64-28.608-64-64zM448 128c0-35.346 28.654-64 64-64s64 28.654 64 64v0c0 35.346-28.654 64-64 64s-64-28.654-64-64v0z" />
<glyph unicode="&#xe61e;" glyph-name="floppy" d="M768 960h-704c-35.328 0-64-28.672-64-64v-896c0-35.328 28.672-64 64-64h896c35.328 0 64 28.672 64 64v768l-192 192h-64zM768 896v-256h-128v256h128zM576 896v-256h-320v256h320zM256 0v384h512v-384h-512zM960 0h-128v384c0 35.328-28.672 64-64 64h-512c-35.328 0-64-28.672-64-64v-384h-128v896h128v-256c0-35.328 28.672-64 64-64h512c35.328 0 64 28.672 64 64v229.504l128-128v-741.504z" />
<glyph unicode="&#xe61f;" glyph-name="gift1" d="M960 704h-896c-35.328 0-64-28.672-64-64v-192h64v-448c0-35.328 28.672-64 64-64h768c35.328 0 64 28.672 64 64v448h64v192c0 35.328-28.672 64-64 64zM64 640h384v-128h-384v128zM128 0v448h320v-448h-320zM896 0h-318.656v448h318.656v-448zM960 512h-382.656v128h382.656v-128zM512 768c0 0.128-0.064 0.384-0.064 0.512h0.192c-0.064-0.128-0.128-0.384-0.128-0.512 0 0 167.616 0 256 0s128 43.008 128 96-39.616 96-128 96c-82.752 0-147.904-37.248-192-80.448-19.328 11.456-41.664 18.432-65.856 18.432-23.168 0-44.608-6.528-63.424-17.152-44.032 42.688-108.8 79.168-190.72 79.168-88.384 0-128-43.008-128-96s39.616-96 128-96c88.384 0 256 0 256 0zM832 864c0-26.432-34.816-32-64-32h-145.344c-0.512 0.896-0.96 1.856-1.472 2.688 32.512 31.616 81.792 61.312 146.816 61.312 29.184 0 64-5.568 64-32zM192 864c0 26.432 34.816 32 64 32 63.616 0 111.872-28.48 144.384-59.008-1.024-1.6-1.792-3.328-2.752-4.992h-141.632c-29.184 0-64 5.568-64 32z" />
<glyph unicode="&#xe620;" glyph-name="globe" d="M963.776 267.584c-174.272-174.208-457.856-174.336-632.128 0-84.352 84.288-130.752 196.544-130.752 316.096s46.464 231.808 130.688 316.032c12.48 12.48 12.48 32.768 0 45.248s-32.768 12.48-45.248 0c-96.384-96.32-149.44-224.64-149.44-361.28s53.12-265.024 149.44-361.344c81.344-81.408 183.616-128.96 289.664-143.872v-78.464h-96c-17.664 0-32-14.336-32-32s14.336-32 32-32h256c17.664 0 32 14.336 32 32s-14.336 32-32 32h-96v73.216c2.56-0.064 5.12-0.384 7.68-0.384 130.816 0 261.696 49.792 361.344 149.44 12.48 12.48 12.48 32.768 0 45.248s-32.768 12.544-45.248 0.064zM647.68 960c-207.872 0-376.32-168.512-376.32-376.32s168.512-376.32 376.32-376.32 376.32 168.448 376.32 376.32-168.512 376.32-376.32 376.32zM647.68 271.36c-172.224 0-312.32 140.096-312.32 312.32s140.096 312.32 312.32 312.32c172.224 0 312.32-140.096 312.32-312.32s-140.096-312.32-312.32-312.32z" />
<glyph unicode="&#xe621;" glyph-name="globe-2" d="M544 896c-265.088 0-480-214.912-480-480s214.912-480 480-480 480 214.912 480 480-214.912 480-480 480zM894.016 640h-95.36c-18.56 58.368-44.032 109.504-74.752 150.528 69.632-33.6 128.576-85.888 170.112-150.528zM576 640v186.752c60.48-17.856 119.424-84.928 155.712-186.752h-155.712zM750.336 576c9.024-39.168 14.848-82.048 16.704-128h-191.040v128h174.336zM512 826.752v-186.752h-155.712c36.288 101.824 95.232 168.896 155.712 186.752zM512 576v-128h-191.040c1.856 45.952 7.68 88.832 16.704 128h174.336zM256.96 448h-127.36c3.456 44.992 13.76 88.128 30.464 128h112.64c-8.576-40.512-13.952-83.328-15.744-128zM256.96 384c1.792-44.672 7.168-87.488 15.744-128h-112.64c-16.704 39.872-27.008 83.008-30.464 128h127.36zM320.96 384h191.040v-128h-174.336c-9.024 39.168-14.848 82.048-16.704 128zM512 192v-186.752c-60.48 17.856-119.424 84.928-155.712 186.752h155.712zM576 5.248v186.752h155.712c-36.288-101.824-95.232-168.896-155.712-186.752zM576 256v128h191.040c-1.856-45.952-7.68-88.832-16.704-128h-174.336zM831.040 384h127.36c-3.456-44.992-13.76-88.128-30.464-128h-112.64c8.576 40.512 13.952 83.328 15.744 128zM831.040 448c-1.792 44.672-7.168 87.488-15.744 128h112.64c16.704-39.872 27.008-83.008 30.464-128h-127.36zM364.096 790.528c-30.656-41.024-56.192-92.16-74.752-150.528h-95.36c41.536 64.64 100.48 116.928 170.112 150.528zM193.984 192h95.36c18.56-58.368 44.032-109.504 74.752-150.528-69.632 33.6-128.576 85.888-170.112 150.528zM723.904 41.472c30.656 41.024 56.192 92.16 74.752 150.528h95.36c-41.536-64.64-100.48-116.928-170.112-150.528z" />
<glyph unicode="&#xe622;" glyph-name="headphones" d="M960 320v128c0 294.144-225.344 448-448 448-217.216 0-448-156.992-448-448v-128c-35.328 0-64-28.672-64-64v-128c0-35.328 28.672-64 64-64 0-35.328 28.672-64 64-64s64 28.672 64 64v256c0 35.328-28.672 64-64 64v64c0 252.096 193.216 384 384 384 184.96 0 384-120.128 384-384v-64c-35.328 0-64-28.672-64-64v-256c0-35.328 28.672-64 64-64s64 28.672 64 64c35.328 0 64 28.672 64 64v128c0 35.328-28.672 64-64 64z" />
<glyph unicode="&#xe623;" glyph-name="heart1" d="M1023.488 517.312c-2.688 157.056-130.112 297.024-287.488 297.024-91.008 0-171.2-47.616-224-117.504-52.8 69.888-132.992 117.504-224 117.504-157.376 0-284.8-139.968-287.488-297.024h-0.512c0-0.96 0.192-1.856 0.192-2.816 0-0.704-0.192-1.408-0.192-2.176 0-4.416 1.088-7.744 1.28-11.968 14.080-400.256 506.688-564.352 506.688-564.352s499.84 163.904 514.624 563.712c0.256 4.48 1.408 8 1.408 12.608 0 0.768-0.192 1.472-0.192 2.176 0 1.024 0.192 1.856 0.192 2.816h-0.512zM958.656 502.080c-11.328-307.2-362.112-463.36-450.56-497.856-87.68 34.56-432.064 190.016-442.88 499.072-0.128 3.2-0.448 6.144-0.896 9.344 0.064 1.152 0.128 2.368 0.192 3.584 2.176 126.912 104.512 234.112 223.488 234.112 65.664 0 128.704-33.536 172.928-92.096 12.096-16 30.976-25.408 51.072-25.408s38.976 9.408 51.072 25.408c44.224 58.56 107.264 92.096 172.928 92.096 118.976 0 221.312-107.2 223.488-234.112 0-1.216 0.064-2.432 0.192-3.648-0.448-3.136-0.832-6.464-1.024-10.496z" />
<glyph unicode="&#xe624;" glyph-name="house" horiz-adv-x="1032" d="M51.968 390.976l76.032 60.8v-451.776c0-35.328 28.672-64 64-64h192c35.328 0 64 28.672 64 64v256h128v-256c0-35.328 28.672-64 64-64h192c35.328 0 64 28.672 64 64v451.776l76.032-60.8c5.888-4.672 12.928-6.976 19.968-6.976 9.408 0 18.688 4.096 25.024 12.032 11.008 13.824 8.768 33.92-4.992 44.992l-480 384c-11.712 9.344-28.288 9.344-40 0l-172.032-137.6v80.576c0 35.328-28.672 64-64 64s-64-28.672-64-64v-182.976l-179.968-144c-13.76-11.072-16-31.168-4.992-44.992s31.104-16.064 44.928-5.056zM512 759.040l320-256v-503.040h-192v320h-256v-320h-192v502.976l320 256.064z" />
<glyph unicode="&#xe625;" glyph-name="id" d="M960 768h-896c-35.328 0-64-28.672-64-64v-576c0-35.328 28.672-64 64-64h896c35.328 0 64 28.672 64 64v576c0 35.328-28.672 64-64 64zM64 704h896v-576h-896v576zM869.312 448h-389.312c-17.664 0-32-14.336-32-32s14.336-32 32-32h389.312c17.664 0 32 14.336 32 32s-14.336 32-32 32zM869.312 320h-389.312c-17.664 0-32-14.336-32-32s14.336-32 32-32h389.312c17.664 0 32 14.336 32 32s-14.336 32-32 32zM869.312 576h-389.312c-17.664 0-32-14.336-32-32s14.336-32 32-32h389.312c17.664 0 32 14.336 32 32s-14.336 32-32 32zM178.56 562.688c0-42.698 34.614-77.312 77.312-77.312s77.312 34.614 77.312 77.312v0c0 42.698-34.614 77.312-77.312 77.312s-77.312-34.614-77.312-77.312v0zM257.536 454.464c-69.888 0-126.464-75.904-126.464-169.6s252.928-93.632 252.928 0-56.64 169.6-126.464 169.6z" />
<glyph unicode="&#xe626;" glyph-name="info" d="M512 960c-282.752 0-512-229.248-512-512s229.248-512 512-512 512 229.248 512 512-229.248 512-512 512zM512 0c-247.040 0-448 200.96-448 448s200.96 448 448 448 448-200.96 448-448-200.96-448-448-448zM512 576c-35.328 0-64-28.672-64-64v-320c0-35.328 28.672-64 64-64s64 28.672 64 64v320c0 35.328-28.672 64-64 64zM448 702.976c0-35.346 28.654-64 64-64s64 28.654 64 64v0c0 35.346-28.654 64-64 64s-64-28.654-64-64v0z" />
<glyph unicode="&#xe627;" glyph-name="key1" d="M352 160c0 19.008-4.096 37.376-12.16 54.464-20.992 44.672-66.496 73.536-115.84 73.536-70.592 0-128-57.408-128-128 0-12.608 2.368-24.512 5.76-36.032 21.44-35.328 50.88-64.768 86.208-86.208 11.52-3.392 23.424-5.76 36.032-5.76 70.592 0 128 57.408 128 128zM224 224c24.704 0 47.424-14.464 57.984-36.8 3.968-8.512 6.016-17.664 6.016-27.2 0-35.264-28.736-64-64-64s-64 28.736-64 64 28.736 64 64 64zM992 960h-138.496c-7.552 0-14.848-2.688-20.672-7.552l-453.12-382.656c-20.864 4.16-40.512 6.208-59.712 6.208-176.448 0-320-143.552-320-320s143.552-320 320-320 320 143.552 320 320c0 33.664-5.376 66.944-16 99.2l97.408 63.296c9.088 5.888 14.592 16 14.592 26.816v116.288l121.664 6.4c15.872 0.832 28.672 13.184 30.144 28.992l11.648 123.264 106.304 50.816c11.2 5.376 18.24 16.64 18.24 28.928v128c0 17.664-14.336 32-32 32zM960 820.16l-104.448-49.92c-10.112-4.864-17.024-14.656-18.048-25.856l-10.752-113.856-124.416-6.528c-17.024-0.96-30.336-14.976-30.336-32v-129.28l-104.448-67.904c-12.992-8.448-18.112-25.024-12.032-39.296 13.632-32.064 20.48-65.536 20.48-99.52 0-141.184-114.816-256-256-256-48.448 0-93.312 14.272-132.032 37.76-35.328 21.44-64.768 50.88-86.208 86.208-23.488 38.72-37.76 83.584-37.76 132.032 0 141.184 114.816 256 256 256 18.88 0 38.72-2.624 60.672-7.936 9.92-2.432 20.416 0 28.224 6.656l456.32 385.28h94.784v-75.84z" />
<glyph unicode="&#xe628;" glyph-name="laptop" d="M990.976 192h-30.976v576c0 35.328-28.672 64-64 64h-768c-35.328 0-64-28.672-64-64v-576h-30.976c-18.24 0-33.024-14.336-33.024-32s14.784-32 33.024-32h957.952c18.24 0 33.024 14.336 33.024 32s-14.784 32-33.024 32zM896 768v-509.312h-768v509.312h768z" />
<glyph unicode="&#xe629;" glyph-name="lifesaver" horiz-adv-x="1124" d="M512 960c-131.008 0-262.080-49.984-362.048-149.952-199.936-199.936-199.936-524.16 0-724.096 99.968-99.968 231.040-149.952 362.048-149.952s262.080 49.984 362.048 149.952c199.936 199.936 199.936 524.16 0 724.096-99.968 99.968-231.040 149.952-362.048 149.952zM331.008 267.008c-48.384 48.32-75.008 112.64-75.008 180.992s26.624 132.672 75.008 180.992c48.32 48.384 112.64 75.008 180.992 75.008s132.672-26.624 180.992-75.008c48.384-48.32 75.008-112.64 75.008-180.992s-26.624-132.672-75.008-180.992c-48.32-48.384-112.64-75.008-180.992-75.008s-132.672 26.624-180.992 75.008zM709.952 849.6l-98.752-98.752c-32.256 10.56-65.6 17.152-99.2 17.152-30.592 0-60.864-5.824-90.496-14.528l-99.84 99.84c58.88 27.584 123.392 42.688 190.336 42.688 69.888 0 137.088-16.32 197.952-46.4zM106.752 638.272l99.84-99.84c-18.304-62.080-17.536-128 2.56-189.696l-98.752-98.752c-30.080 60.928-46.4 128.128-46.4 198.016 0 66.944 15.104 131.456 42.752 190.272zM195.2 131.264v0c0-0.064 0-0.064 0 0v0zM329.408 39.104l100.864 100.864c26.816-7.104 54.144-11.968 81.728-11.968 30.592 0 60.864 5.824 90.496 14.592l99.84-99.84c-58.88-27.648-123.392-42.752-190.336-42.752-64.064 0-125.824 13.76-182.592 39.104zM917.12 257.856l-99.648 99.648c16.576 56.256 17.536 115.584 2.56 172.224l100.672 100.672c52.672-118.464 51.456-254.912-3.584-372.544z" />
<glyph unicode="&#xe62a;" glyph-name="like" d="M867.2 640c0 0-243.904 0-291.2 0v166.016c2.304 89.856-17.984 153.856-94.016 153.856-81.984 0-97.984-68.032-97.984-68.032-14.976-240.96-256-315.84-256-315.84v-512l93.504-3.968c242.112 0 96.832-124.032 494.656-124.032 302.080 0 307.84 265.856 307.84 448s-83.008 256-156.8 256zM716.16 0c-202.112 0-244.928 32.192-282.752 60.608-47.808 35.904-93.696 63.36-208.768 63.36-0.128 0-0.256 0-0.384 0l-32.256 1.344v407.68c79.808 37.248 238.4 137.088 255.296 346.688 2.496 5.12 10.752 16.192 34.688 16.192 5.696 0 13.056-0.64 16.192-3.84 2.624-2.624 15.488-19.264 13.824-86.016v-230.016h355.2c46.144 0 92.8-65.92 92.8-192 0-249.024-38.848-384-243.84-384zM32 0c17.664 0 32 14.336 32 32v573.312c0 17.664-14.336 32-32 32s-32-14.336-32-32v-573.312c0-17.664 14.336-32 32-32z" />
<glyph unicode="&#xe62b;" glyph-name="lock1" d="M512 960c-176.704 0-320-145.472-320-324.928v-59.072h-64c-35.328 0-64-28.672-64-64v-512c0-35.328 28.672-64 64-64h768c35.328 0 64 28.672 64 64v512c0 35.328-28.672 64-64 64h-64v59.072c0 179.456-143.296 324.928-320 324.928zM256 635.072c0 143.872 114.816 260.928 256 260.928s256-117.056 256-260.928v-59.072h-512v59.072zM896 0h-768v512h768v-512zM640 256c0 70.72-57.28 128-128 128s-128-57.28-128-128 57.28-128 128-128 128 57.28 128 128zM512 192c-35.264 0-64 28.736-64 64s28.736 64 64 64 64-28.736 64-64-28.736-64-64-64z" />
<glyph unicode="&#xe62c;" glyph-name="mail" d="M960 704h-896c-35.328 0-64-28.672-64-64v-640c0-35.328 28.672-64 64-64h896c35.328 0 64 28.672 64 64v640c0 35.328-28.672 64-64 64zM363.52 254.272l148.608-100.992 147.712 101.696 254.912-254.976h-805.504l254.272 254.272zM64 45.248v412.672l245.632-166.976-245.632-245.696zM713.408 291.84l246.592 169.728v-416.32l-246.592 246.592zM960 640v-103.552l-1.344 1.92-446.784-307.648-447.872 304.512v104.768h896z" />
<glyph unicode="&#xe62d;" glyph-name="map1" d="M973.888 830.464l-288 128c-4.544 1.024-9.216 1.536-13.888 1.536-4.16 0-8.384-0.384-12.48-1.216l-308.096-125.376-273.472 125.056c-4.608 1.024-9.28 1.536-13.952 1.536-14.4 0-28.544-4.864-40-14.080-15.168-12.096-24-30.464-24-49.92v-768c0-29.952 20.8-55.936 50.048-62.464l286.656-128c4.608-1.024 9.28-1.536 13.952-1.536 4.16 0 8.384 0.384 12.48 1.216l308.096 125.376 274.816-125.056c4.672-1.024 9.344-1.536 13.952-1.536 14.4 0 28.608 4.864 40.064 14.080 15.104 12.16 23.936 30.528 23.936 49.92v768c0 30.016-20.864 56-50.112 62.464zM384 781.248l256 101.952v-768l-256-101.952v768zM64 896l256-114.304v-768l-256 114.304v768zM960 0l-256 113.792v768l256-113.792v-768z" />
<glyph unicode="&#xe62e;" glyph-name="menu1" d="M224 448h576c17.664 0 32 14.336 32 32s-14.336 32-32 32h-576c-17.664 0-32-14.336-32-32s14.336-32 32-32zM224 640h576c17.664 0 32 14.336 32 32s-14.336 32-32 32h-576c-17.664 0-32-14.336-32-32s14.336-32 32-32zM224 256h576c17.664 0 32 14.336 32 32s-14.336 32-32 32h-576c-17.664 0-32-14.336-32-32s14.336-32 32-32z" />
<glyph unicode="&#xe62f;" glyph-name="menu-circle2" d="M544 896c-265.088 0-480-214.912-480-480s214.912-480 480-480 480 214.912 480 480-214.912 480-480 480zM544 0c-229.376 0-416 186.624-416 416s186.624 416 416 416 416-186.624 416-416-186.624-416-416-416zM800 448h-512c-17.664 0-32-14.336-32-32s14.336-32 32-32h512c17.664 0 32 14.336 32 32s-14.336 32-32 32zM800 640h-512c-17.664 0-32-14.336-32-32s14.336-32 32-32h512c17.664 0 32 14.336 32 32s-14.336 32-32 32zM800 256h-512c-17.664 0-32-14.336-32-32s14.336-32 32-32h512c17.664 0 32 14.336 32 32s-14.336 32-32 32z" />
<glyph unicode="&#xe630;" glyph-name="menu-square2" d="M960 896h-832c-35.328 0-64-28.672-64-64v-832c0-35.328 28.672-64 64-64h832c35.328 0 64 28.672 64 64v832c0 35.328-28.672 64-64 64zM960 0h-832v832h832v-832zM288 384h512c17.664 0 32 14.336 32 32s-14.336 32-32 32h-512c-17.664 0-32-14.336-32-32s14.336-32 32-32zM288 576h512c17.664 0 32 14.336 32 32s-14.336 32-32 32h-512c-17.664 0-32-14.336-32-32s14.336-32 32-32zM288 192h512c17.664 0 32 14.336 32 32s-14.336 32-32 32h-512c-17.664 0-32-14.336-32-32s14.336-32 32-32z" />
<glyph unicode="&#xe631;" glyph-name="mic" d="M448 134.144v-134.144h-96c-17.664 0-32-14.336-32-32s14.336-32 32-32h320c17.664 0 32 14.336 32 32s-14.336 32-32 32h-96v134.528c133.312 26.304 256 134.208 256 313.472v96c0 17.664-14.336 32-32 32s-32-14.336-32-32v-96c0-168.064-128.832-256-256-256-123.328 0-256 80.128-256 256v96c0 17.664-14.336 32-32 32s-32-14.336-32-32v-96c0-181.76 120.512-288.384 256-313.856zM512 256c105.856 0 192 86.144 192 192v320c0 105.856-86.144 192-192 192s-192-86.144-192-192v-320c0-105.856 86.144-192 192-192zM384 768c0 70.72 57.28 128 128 128s128-57.28 128-128v-320c0-70.72-57.28-128-128-128s-128 57.28-128 128v320z" />
<glyph unicode="&#xe632;" glyph-name="paperclip" horiz-adv-x="1028" d="M436.73 743.497c-65.714 65.59-148.245 71.113-205.644 13.714-57.399-57.337-51.938-139.992 13.652-205.644l355.192-355.192c12.1-12.1 31.771-12.1 43.872 0s12.1 31.771 0 43.872l-355.192 355.192c-31.833 31.833-52.125 79.49-13.714 117.901 38.349 38.411 86.068 18.057 117.901-13.776l394.906-394.844c113.247-113.371 141.481-165.62 74.029-233.133-68.258-68.196-140.612-51.318-249.577 57.585l-438.715 438.839c-70.865 70.865-120.507 186.594-27.365 279.673 110.579 110.579 236.857 1.862 272.847-34.191l403.097-403.159c12.1-12.1 31.771-12.1 43.872 0s12.1 31.771 0 43.872l-403.097 403.159c-121.872 121.872-260.064 134.903-360.653 34.191-101.643-101.581-90.66-249.267 27.427-367.416l438.777-438.777c37.294-37.294 117.156-117.094 208.995-117.094 41.265 0 85.013 16.196 128.326 59.509 123.299 123.362 9.246 237.539-74.029 320.876l-394.906 394.844z" />
<glyph unicode="&#xe633;" glyph-name="pens" d="M128 768v-512l128-320 128 320-0.32 0.128c0.192 0.192 0.128 0.512 0.32 0.704v575.168c0 70.72-57.28 128-128 128s-128-57.28-128-128v-64zM192 832c0 35.264 28.736 64 64 64s64-28.736 64-64v-64h-128v64zM256 108.352l-46.72 116.736 46.72 23.36 46.72-23.36-0.96-2.432-12.8-32-32.96-82.304zM320 288l-64 32-64-32v416h128v-416zM805.888 769.344l-61.312 158.656-0.576-0.192c-4.48 18.304-20.288 32.192-40 32.192-21.184 0-37.888-15.872-40.832-36.224l-1.152 0.256-59.904-154.688-26.112-65.344v-640c0-70.72 57.28-128 128-128s128 57.28 128 128c35.328 0 64 28.672 64 64v192c0 35.328-28.672 64-64 64v320l-26.112 65.344zM768 320v-256c0-35.264-28.736-64-64-64s-64 28.736-64 64v640h128v-384zM737.472 768h-66.944l33.472 83.648 33.472-83.648z" />
<glyph unicode="&#xe634;" glyph-name="percent" d="M512 960c-282.752 0-512-229.248-512-512s229.248-512 512-512 512 229.248 512 512-229.248 512-512 512zM512 0c-247.040 0-448 200.96-448 448s200.96 448 448 448 448-200.96 448-448-200.96-448-448-448zM451.968 609.984c0 54.144-43.904 97.984-97.984 97.984s-97.984-43.84-97.984-97.984 43.904-97.984 97.984-97.984 97.984 43.904 97.984 97.984zM320 609.984c0 18.752 15.232 33.984 33.984 33.984s33.984-15.232 33.984-33.984-15.232-33.984-33.984-33.984-33.984 15.232-33.984 33.984zM670.016 387.968c-54.144 0-97.984-43.904-97.984-97.984s43.84-97.984 97.984-97.984 97.984 43.904 97.984 97.984-43.904 97.984-97.984 97.984zM670.016 256c-18.752 0-33.984 15.232-33.984 33.984s15.232 33.984 33.984 33.984 33.984-15.232 33.984-33.984-15.232-33.984-33.984-33.984zM726.656 662.656c-12.48 12.48-32.768 12.48-45.248 0l-384-384c-12.48-12.48-12.48-32.768 0-45.248 6.208-6.272 14.4-9.408 22.592-9.408s16.384 3.136 22.656 9.344l384 384c12.48 12.544 12.48 32.768 0 45.312z" />
<glyph unicode="&#xe635;" glyph-name="phone1" d="M825.6 233.6l-172.8 99.2c-6.4 3.2-16 6.4-25.6 3.2s-16-6.4-19.2-16l-64-115.2c-35.2 19.2-105.6 67.2-166.4 156.8s-80 169.6-86.4 211.2l134.4 22.4c16 3.2 28.8 19.2 25.6 35.2l-32 195.2c-3.2 16-12.8 25.6-28.8 25.6l-134.4 12.8c-9.6 0-16-3.2-25.6-9.6-6.4-6.4-9.6-12.8-9.6-22.4l3.2-233.6c0 0 0 0 0 0 0-6.4 3.2-131.2 99.2-272 99.2-144 214.4-188.8 217.6-192v0l217.6-86.4c3.2 0 6.4-3.2 12.8-3.2s9.6 0 12.8 3.2c9.6 3.2 12.8 9.6 16 19.2l38.4 131.2c6.4 12.8 0 28.8-12.8 35.2zM361.6 790.4l22.4-140.8-96-16-3.2 160 76.8-3.2zM752 118.4l-150.4 60.8 48 83.2 121.6-70.4-19.2-73.6z" />
<glyph unicode="&#xe636;" glyph-name="pin1" d="M486.784 434.432c91.968 0 166.784 74.816 166.784 166.784s-74.816 166.784-166.784 166.784-166.784-74.816-166.784-166.784c0-91.968 74.816-166.784 166.784-166.784zM486.784 704c56.64 0 102.784-46.080 102.784-102.784s-46.080-102.784-102.784-102.784-102.784 46.144-102.784 102.784 46.080 102.784 102.784 102.784zM463.488-46.656c5.376-5.952 10.56-9.792 15.552-12.48 0.064-0.064 0.192-0.064 0.256-0.128 3.456-1.792 6.848-3.136 10.048-3.136s6.592 1.344 10.048 3.136c0.064 0.064 0.192 0.064 0.256 0.128 4.992 2.688 10.176 6.528 15.552 12.48 0 0 297.472 323.52 327.36 603.84 1.792 14.464 3.008 29.12 3.008 44.032 0 198.144-160.64 358.784-358.784 358.784s-358.784-160.64-358.784-358.784c0-15.168 1.216-29.952 3.072-44.608 30.656-280.192 332.416-603.264 332.416-603.264zM486.784 896c162.56 0 294.784-132.224 294.784-294.784 0-10.816-0.768-22.336-2.624-37.248-22.912-214.784-224.576-466.816-289.536-543.488-66.624 76.8-271.168 328.192-294.848 544-1.728 14.144-2.56 25.792-2.56 36.736 0 162.56 132.224 294.784 294.784 294.784z" />
<glyph unicode="&#xe637;" glyph-name="pushpin" d="M278.080 391.296c-13.632-15.488-18.944-36.608-14.336-56.704s18.688-36.736 37.696-44.672c45.44-19.008 122.688-31.040 210.624-33.472 0-0.128-0.064-0.256-0.064-0.448v-192c0-35.328 14.336-128 32-128s32 92.672 32 128v192c0 0.192-0.064 0.32-0.064 0.512 87.936 2.368 165.184 14.464 210.624 33.472 19.008 7.936 33.088 24.576 37.696 44.672s-0.704 41.216-14.336 56.64c-26.24 29.76-72.064 46.208-105.92 54.784v331.52c33.472 11.328 61.888 25.536 84.352 42.112 19.2 14.144 28.928 37.888 25.216 61.44s-20.224 43.136-42.88 50.752c-31.232 10.496-102.272 28.096-226.688 28.096-131.52 0-204.16-20.288-229.312-28.992-22.336-7.744-38.592-27.2-42.24-50.56-3.648-23.296 5.888-46.784 24.768-61.056 22.784-17.088 51.904-31.552 86.72-42.944h0.064v-330.368c-33.792-8.512-79.68-24.96-105.92-54.784zM403.904 837.248c-33.408 10.944-55.104 23.424-68.224 33.344 34.048 11.776 102.976 25.408 208.32 25.408 103.296 0 171.712-13.12 206.4-24.768-13.568-9.984-35.072-22.208-66.944-33.024l-43.456-14.72v-427.2l48.256-12.224c35.392-8.96 62.144-22.016 73.6-35.072-29.632-12.352-101.632-28.992-217.856-28.992s-188.224 16.64-217.856 28.992c11.52 13.056 38.272 26.112 73.6 35.072l48.256 12.224v426.56l-44.096 14.4z" />
<glyph unicode="&#xe638;" glyph-name="ribbon" d="M167.488-59.136c7.936-3.264 16.256-4.864 24.512-4.864 16.64 0 33.024 6.528 45.248 18.752l274.752 274.752 274.752-274.752c12.224-12.224 28.608-18.752 45.248-18.752 8.256 0 16.576 1.6 24.448 4.864 23.936 9.92 39.552 33.28 39.552 59.136v896c0 35.328-28.672 64-64 64h-640c-35.328 0-64-28.672-64-64v-896c0-25.856 15.616-49.216 39.488-59.136zM512 320l-320-320v704h640v-704l-320 320zM832 896v-128h-640v128h640z" />
<glyph unicode="&#xe639;" glyph-name="search2" d="M603.324 960c-227.993 0-412.801-184.808-412.801-412.801 0-98.12 34.421-188.174 91.578-259.048l-272.83-272.83c-17.147-17.147-17.147-45.027 0-62.174s45.027-17.147 62.174 0l272.83 272.83c70.875-57.157 160.929-91.578 259.048-91.578 227.993 0 412.801 184.808 412.801 412.801s-184.808 412.801-412.801 412.801zM603.324 197.906c-192.619 0-349.293 156.674-349.293 349.293s156.674 349.293 349.293 349.293 349.293-156.674 349.293-349.293-156.674-349.293-349.293-349.293z" />
<glyph unicode="&#xe63a;" glyph-name="share-thin" d="M736 288c-32 0-64-12.8-86.4-32l-243.2 150.4c3.2 12.8 6.4 25.6 6.4 41.6s-3.2 28.8-6.4 41.6l243.2 150.4c22.4-19.2 51.2-32 86.4-32 70.4 0 128 57.6 128 128s-57.6 128-128 128c-70.4 0-128-57.6-128-128 0-16 3.2-28.8 6.4-41.6l-240-150.4c-22.4 19.2-54.4 32-86.4 32-70.4 0-128-57.6-128-128s57.6-128 128-128c32 0 64 12.8 86.4 32l243.2-150.4c-6.4-12.8-9.6-25.6-9.6-41.6 0-70.4 57.6-128 128-128s128 57.6 128 128c0 70.4-57.6 128-128 128v0zM736 800c35.2 0 64-28.8 64-64s-28.8-64-64-64c-35.2 0-64 28.8-64 64s28.8 64 64 64zM288 384c-35.2 0-64 28.8-64 64s28.8 64 64 64c35.2 0 64-28.8 64-64s-28.8-64-64-64zM736 96c-35.2 0-64 28.8-64 64s28.8 64 64 64c35.2 0 64-28.8 64-64s-28.8-64-64-64z" />
<glyph unicode="&#xe63b;" glyph-name="shopping-bag1" d="M876.8 748.8c-12.8 12.8-25.6 19.2-44.8 19.2h-128c0 51.2-19.2 96-57.6 134.4s-83.2 57.6-134.4 57.6-96-19.2-134.4-57.6-57.6-83.2-57.6-134.4h-128c-19.2 0-32-6.4-44.8-19.2s-19.2-25.6-19.2-44.8v-704c0-19.2 6.4-32 19.2-44.8s25.6-19.2 44.8-19.2h640c19.2 0 32 6.4 44.8 19.2s19.2 25.6 19.2 44.8v704c0 19.2-6.4 32-19.2 44.8zM422.4 857.6c25.6 25.6 57.6 38.4 89.6 38.4s64-12.8 89.6-38.4c25.6-25.6 38.4-51.2 38.4-89.6h-256c0 38.4 12.8 64 38.4 89.6zM832 0h-640v704h128v-128c0-6.4 0-19.2 6.4-25.6s12.8-6.4 25.6-6.4c6.4 0 19.2 0 25.6 6.4s6.4 19.2 6.4 25.6v128h256v-128c0-6.4 0-19.2 6.4-25.6s12.8-6.4 25.6-6.4c6.4 0 19.2 0 25.6 6.4s6.4 19.2 6.4 25.6v128h128v-704z" />
<glyph unicode="&#xe63c;" glyph-name="shopping-cart1" d="M320 160c19.2 0 32-6.4 44.8-19.2s19.2-25.6 19.2-44.8-6.4-32-19.2-44.8c-12.8-12.8-25.6-19.2-44.8-19.2s-32 6.4-44.8 19.2-19.2 25.6-19.2 44.8 6.4 32 19.2 44.8 25.6 19.2 44.8 19.2zM768 160c19.2 0 32-6.4 44.8-19.2s19.2-25.6 19.2-44.8-6.4-32-19.2-44.8-25.6-19.2-44.8-19.2-32 6.4-44.8 19.2-19.2 25.6-19.2 44.8 6.4 32 19.2 44.8 25.6 19.2 44.8 19.2zM768 288h-448c-12.8 0-25.6 6.4-32 25.6l-153.6 550.4h-134.4v64h160c12.8 0 25.6-12.8 32-25.6l153.6-550.4h403.2l160 320h-460.8v64h512c12.8 0 19.2-6.4 25.6-12.8s6.4-19.2 0-32l-192-384c0-12.8-12.8-19.2-25.6-19.2z" />
<glyph unicode="&#xe63d;" glyph-name="star1" horiz-adv-x="1032" d="M1020.288 545.728c-7.552 23.168-27.584 40.064-51.648 43.584l-275.84 40.064-123.392 249.92c-10.816 21.888-33.024 35.712-57.408 35.712s-46.592-13.824-57.408-35.712l-123.328-249.92-275.84-40.064c-24.128-3.52-44.16-20.416-51.648-43.584-7.552-23.168-1.28-48.576 16.192-65.6l199.616-194.56-47.104-274.752c-4.096-24 5.76-48.256 25.472-62.592 11.072-8.128 24.256-12.224 37.568-12.224 10.176 0 20.416 2.432 29.76 7.36l246.72 129.728 246.72-129.728c9.344-4.928 19.584-7.36 29.76-7.36 13.248 0 26.496 4.096 37.632 12.224 19.712 14.336 29.568 38.592 25.472 62.592l-47.104 274.752 199.616 194.56c17.408 16.96 23.68 42.432 16.192 65.6zM735.68 307.904l52.8-307.904-276.48 145.344-276.48-145.344 52.8 307.904-223.68 218.048 309.12 44.928 138.24 280.128 138.24-280.128 309.12-44.928-223.68-218.048z" />
<glyph unicode="&#xe63e;" glyph-name="tag1" d="M929.856 895.68c-0.576 0-1.152 0-1.728 0-0.512 0-0.96 0.064-1.472 0h-402.368c-9.792-0.448-32.064-15.744-34.944-18.624l-470.656-470.656c-24.96-24.96-24.96-65.408 0-90.368l361.344-361.344c12.544-12.48 28.864-18.688 45.184-18.688s32.704 6.208 45.184 18.688l470.656 470.656c2.88 2.88 18.944 22.656 18.944 34.944v403.648c0.896 17.856-12.608 31.744-30.144 31.744zM896 472.256c-0.96-1.472-1.92-3.008-2.816-4.224l-467.904-468.032-361.344 361.152 468.032 468.032c1.28 0.896 2.752 1.856 4.288 2.816h359.744v-359.744zM768 736c0-17.673 14.327-32 32-32s32 14.327 32 32v0c0 17.673-14.327 32-32 32s-32-14.327-32-32v0z" />
<glyph unicode="&#xe63f;" glyph-name="toolbox" d="M960 640h-256c0-35.328-28.672-64-64-64h320v-128h-320c35.328 0 64-28.672 64-64h256v-384h-896v384h256c0 35.328 28.672 64 64 64h-320v128h320c-35.328 0-64 28.672-64 64h-256c-35.328 0-64-28.672-64-64v-576c0-35.328 28.672-64 64-64h896c35.328 0 64 28.672 64 64v576c0 35.328-28.672 64-64 64zM384 576h256c35.328 0 64 28.672 64 64v64c0 35.328-28.672 64-64 64h-256c-35.328 0-64-28.672-64-64v-64c0-35.328 28.672-64 64-64zM384 704h256v-64h-256v64zM320 384v-64c0-35.328 28.672-64 64-64h256c35.328 0 64 28.672 64 64v64c0 35.328-28.672 64-64 64h-256c-35.328 0-64-28.672-64-64zM640 320h-256v64h256v-64z" />
<glyph unicode="&#xe640;" glyph-name="wallet" d="M960 512v192c0 35.328-28.672 64-64 64h-19.072l-21.568 133.12c-1.344 8.384-5.952 15.872-12.864 20.8-6.784 4.992-15.36 7.104-23.808 5.632l-695.808-112.896c-17.472-2.816-29.312-19.264-26.432-36.736l1.6-9.92h-34.048c-35.328 0-64-28.672-64-64v-704c0-35.328 28.672-64 64-64h832c35.328 0 64 28.672 64 64v192c35.328 0 64 28.672 64 64v192c0 35.328-28.672 64-64 64zM64 704h832v-192h-256c-35.328 0-64-28.672-64-64v-192c0-35.328 28.672-64 64-64h256v-192h-832v704zM234.752 768l562.56 91.328 14.784-91.328h-577.344zM640 256v192h320v-192h-320zM704 352c0-17.673 14.327-32 32-32s32 14.327 32 32v0c0 17.673-14.327 32-32 32s-32-14.327-32-32v0z" />
<glyph unicode="&#xe700;" glyph-name="account" d="M763.733 409.6c-21.333-21.333-42.667-38.4-64-55.467 42.667-46.933 68.267-106.667 68.267-183.467v-85.333h-512v85.333c0 72.533 25.6 136.533 68.267 183.467-25.6 17.067-46.933 34.133-64 55.467-55.467-59.733-89.6-145.067-89.6-238.933v-170.667h682.667v170.667c0 93.867-34.133 179.2-89.6 238.933zM512 426.667c119.467 0 213.333 93.867 213.333 213.333s-93.867 213.333-213.333 213.333-213.333-93.867-213.333-213.333 93.867-213.333 213.333-213.333zM512 768c72.533 0 128-55.467 128-128s-55.467-128-128-128-128 55.467-128 128 55.467 128 128 128z" />
<glyph unicode="&#xe701;" glyph-name="alert" d="M512 853.334l-469.333-810.667h938.667zM512 682.667l321.28-554.667h-642.56zM469.333 512v-170.667h85.333v170.667zM469.333 256v-85.333h85.333v85.333z" />
<glyph unicode="&#xe702;" glyph-name="arrow-collapse-down" d="M849.92 423.254l-337.92-337.92-337.92 337.92 60.587 60.16 234.667-234.667v604.587h85.333v-604.587l234.667 235.093 60.587-60.587zM512 85.334h-426.667v-85.333h853.333v85.333h-426.667z" />
<glyph unicode="&#xe703;" glyph-name="arrow-collapse-up" d="M174.080 430.080l337.92 337.92 337.92-337.92-60.587-60.16-234.667 234.667v-604.587h-85.333v604.587l-234.667-234.667-60.587 60.16zM512 768h426.667v85.333h-853.333v-85.333h426.667z" />
<glyph unicode="&#xe704;" glyph-name="at" d="M512 298.667c34.56 0 64 12.8 90.027 37.973 25.173 26.027 37.973 55.467 37.973 90.027s-12.8 64-37.973 90.027c-26.027 25.173-55.467 37.973-90.027 37.973s-64-12.8-90.027-37.973c-25.173-26.027-37.973-55.467-37.973-90.027s12.8-64 37.973-90.027c26.027-25.173 55.467-37.973 90.027-37.973zM512 853.334c117.333 0 217.6-42.667 300.8-125.867s125.867-183.467 125.867-300.8v-61.867c0-42.667-14.933-78.933-42.667-108.8-29.867-28.587-64-42.667-106.667-42.667-51.2 0-93.44 21.333-125.44 64-42.667-42.667-93.013-64-151.893-64-58.453 0-108.8 21.333-151.040 62.293-40.96 42.24-62.293 92.16-62.293 151.040 0 58.453 21.333 108.8 62.293 151.040 42.24 40.96 92.587 62.293 151.040 62.293 58.88 0 108.8-21.333 151.040-62.293 40.96-42.24 62.293-92.587 62.293-151.040v-61.867c0-17.493 6.827-32.853 19.627-46.080s27.733-20.053 44.373-20.053c17.92 0 32.853 6.827 45.653 20.053s18.347 28.587 18.347 46.080v61.867c0 93.44-32.853 173.653-100.267 241.067s-147.627 100.267-241.067 100.267c-93.44 0-173.653-32.853-241.067-100.267s-100.267-147.627-100.267-241.067c0-93.44 32.853-173.653 100.267-241.067s147.627-100.267 241.067-100.267h213.333v-85.333h-213.333c-117.333 0-217.6 42.667-300.8 125.867s-125.867 183.467-125.867 300.8c0 117.333 42.667 217.6 125.867 300.8s183.467 125.867 300.8 125.867z" />
<glyph unicode="&#xe705;" glyph-name="basket" d="M938.667 554.667h-204.373l-186.88 279.893c-8.107 11.947-21.76 18.773-35.413 18.773s-27.307-6.827-35.413-19.2l-186.88-279.467h-204.373c-23.467 0-42.667-19.2-42.667-42.667 0-3.84 0-7.68 1.707-11.52l108.373-395.52c9.813-35.84 42.667-62.293 81.92-62.293h554.667c39.253 0 72.107 26.453 82.347 62.293l108.373 395.52 1.28 11.52c0 23.467-19.2 42.667-42.667 42.667zM512 733.867l119.467-179.2h-238.933l119.467 179.2zM789.333 128h-554.667l-93.44 341.333h741.973l-93.867-341.333zM512 384c-46.933 0-85.333-38.4-85.333-85.333s38.4-85.333 85.333-85.333 85.333 38.4 85.333 85.333-38.4 85.333-85.333 85.333z" />
<glyph unicode="&#xe706;" glyph-name="bell" d="M426.667 42.667h170.667c0-46.933-38.4-85.333-85.333-85.333s-85.333 38.4-85.333 85.333zM896 128v-42.667h-768v42.667l85.333 85.333v256c0 132.267 85.333 247.467 213.333 285.867v12.8c0 46.933 38.4 85.333 85.333 85.333s85.333-38.4 85.333-85.333v-12.8c128-38.4 213.333-153.6 213.333-285.867v-256l85.333-85.333zM725.333 469.334c0 119.467-93.867 213.333-213.333 213.333s-213.333-93.867-213.333-213.333v-298.667h426.667v298.667z" />
<glyph unicode="&#xe707;" glyph-name="bookmark" d="M725.333 170.667l-213.333 93.013-213.333-93.013v554.667h426.667zM725.333 810.667h-426.667c-47.128 0-85.333-38.205-85.333-85.333v0-682.667l298.667 128 298.667-128v682.667c0 47.36-38.4 85.333-85.333 85.333z" />
<glyph unicode="&#xe708;" glyph-name="briefcase" d="M853.333 682.667c24.747 0 44.8-8.533 60.587-25.173 16.213-17.493 24.747-36.693 24.747-60.16v-469.333c0-23.467-8.533-42.667-24.747-60.16-15.787-16.64-35.84-25.173-60.587-25.173h-682.667c-24.747 0-44.8 8.533-60.587 25.173-16.213 17.493-24.747 36.693-24.747 60.16v469.333c0 23.467 8.533 42.667 24.747 60.16 15.787 16.64 35.84 25.173 60.587 25.173h170.667v85.333c0 24.747 8.533 44.8 24.747 60.587 15.787 16.213 35.84 24.747 60.587 24.747h170.667c24.747 0 44.8-8.533 60.587-24.747 16.213-15.787 24.747-35.84 24.747-60.587v-85.333h170.667zM170.667 597.334v-469.333h682.667v469.333h-682.667zM597.333 682.667v85.333h-170.667v-85.333h170.667z" />
<glyph unicode="&#xe709;" glyph-name="calendar-month" d="M298.667 426.667h85.333v-85.333h-85.333v85.333zM896 682.667v-597.333c0-47.128-38.205-85.333-85.333-85.333v0h-597.333c-47.36 0-85.333 38.4-85.333 85.333v597.333c0 47.128 38.205 85.333 85.333 85.333v0h42.667v85.333h85.333v-85.333h341.333v85.333h85.333v-85.333h42.667c47.128 0 85.333-38.205 85.333-85.333v0zM213.333 597.334h597.333v85.333h-597.333v-85.333zM810.667 85.334v426.667h-597.333v-426.667h597.333zM640 341.334v85.333h85.333v-85.333h-85.333zM469.333 341.334v85.333h85.333v-85.333h-85.333zM298.667 256h85.333v-85.333h-85.333v85.333zM640 170.667v85.333h85.333v-85.333h-85.333zM469.333 170.667v85.333h85.333v-85.333h-85.333z" />
<glyph unicode="&#xe70a;" glyph-name="camera" d="M853.333 768h-135.253l-78.080 85.333h-256l-78.080-85.333h-135.253c-47.128 0-85.333-38.205-85.333-85.333v0-512c0-47.128 38.205-85.333 85.333-85.333v0h682.667c47.128 0 85.333 38.205 85.333 85.333v0 512c0 47.128-38.205 85.333-85.333 85.333v0zM853.333 170.667h-682.667v512h172.8l78.080 85.333h180.907l78.080-85.333h172.8v-512zM512 640c-117.821 0-213.333-95.513-213.333-213.333v0c0-117.821 95.513-213.333 213.333-213.333v0c117.821 0 213.333 95.513 213.333 213.333v0c0 117.821-95.513 213.333-213.333 213.333v0zM512 298.667c-70.692 0-128 57.308-128 128v0c0 70.692 57.308 128 128 128v0c70.692 0 128-57.308 128-128v0c0-70.692-57.308-128-128-128v0z" />
<glyph unicode="&#xe70b;" glyph-name="cart" d="M725.333 170.667c47.128 0 85.333-38.205 85.333-85.333v0c0-47.128-38.205-85.333-85.333-85.333v0c-47.36 0-85.333 38.4-85.333 85.333 0 47.36 37.973 85.333 85.333 85.333zM42.667 853.334h139.52l40.107-85.333h631.040c23.564 0 42.667-19.103 42.667-42.667v0c0-7.253-2.133-14.507-5.12-21.333l-152.747-276.053c-14.507-26.027-42.667-43.947-74.667-43.947h-317.867l-38.4-69.547-1.28-5.12c0-5.891 4.776-10.667 10.667-10.667v0h494.080v-85.333h-512c-47.36 0-85.333 38.4-85.333 85.333 0 14.933 3.84 29.013 10.24 40.96l58.027 104.533-153.6 323.84h-85.333v85.333zM298.667 170.667c47.128 0 85.333-38.205 85.333-85.333v0c0-47.128-38.205-85.333-85.333-85.333v0c-47.36 0-85.333 38.4-85.333 85.333 0 47.36 37.973 85.333 85.333 85.333zM682.667 469.334l118.613 213.333h-539.307l100.693-213.333h320z" />
<glyph unicode="&#xe70c;" glyph-name="check" d="M896 640l-512-512-234.667 234.667 60.16 60.16 174.507-174.080 451.84 451.413 60.16-60.16z" />
<glyph unicode="&#xe70d;" glyph-name="check-circle" d="M512 853.334c-234.667 0-426.667-192-426.667-426.667s192-426.667 426.667-426.667 426.667 192 426.667 426.667-192 426.667-426.667 426.667zM512 85.334c-188.16 0-341.333 153.173-341.333 341.333s153.173 341.333 341.333 341.333 341.333-153.173 341.333-341.333-153.173-341.333-341.333-341.333zM707.84 615.254l-281.173-281.173-110.507 110.080-60.16-60.16 170.667-170.667 341.333 341.333-60.16 60.587z" />
<glyph unicode="&#xe70e;" glyph-name="chevron-double-down" d="M707.84 700.16l60.16-60.16-256-256-256 256 60.16 60.16 195.84-195.413 195.84 195.413zM707.84 444.16l60.16-60.16-256-256-256 256 60.16 60.16 195.84-195.413 195.84 195.413z" />
<glyph unicode="&#xe70f;" glyph-name="chevron-double-left" d="M785.493 622.507l-60.16 60.16-256-256 256-256 60.16 60.16-195.413 195.84 195.413 195.84zM529.493 622.507l-60.16 60.16-256-256 256-256 60.16 60.16-195.413 195.84 195.413 195.84z" />
<glyph unicode="&#xe710;" glyph-name="chevron-double-right" d="M238.507 622.507l60.16 60.16 256-256-256-256-60.16 60.16 195.413 195.84-195.413 195.84zM494.507 622.507l60.16 60.16 256-256-256-256-60.16 60.16 195.413 195.84-195.413 195.84z" />
<glyph unicode="&#xe711;" glyph-name="chevron-double-up" d="M316.16 153.174l-60.16 60.16 256 256 256-256-60.16-60.16-195.84 195.413-195.84-195.413zM316.16 409.174l-60.16 60.16 256 256 256-256-60.16-60.16-195.84 195.413-195.84-195.413z" />
<glyph unicode="&#xe712;" glyph-name="chevron-down" d="M316.16 572.587l195.84-195.84 195.84 195.84 60.16-60.587-256-256-256 256 60.16 60.587z" />
<glyph unicode="&#xe713;" glyph-name="chevron-down-circle" d="M938.667 426.667c0-235.641-191.025-426.667-426.667-426.667v0c-235.641 0-426.667 191.025-426.667 426.667v0c0 235.641 191.025 426.667 426.667 426.667v0c235.641 0 426.667-191.025 426.667-426.667v0zM853.333 426.667c0 188.513-152.82 341.333-341.333 341.333v0c-188.513 0-341.333-152.82-341.333-341.333v0c0-188.513 152.82-341.333 341.333-341.333v0c188.513 0 341.333 152.82 341.333 341.333v0zM256 512l256-256 256 256-59.733 59.733-196.267-196.267-196.267 196.267-59.733-59.733z" />
<glyph unicode="&#xe714;" glyph-name="chevron-left" d="M657.493 231.254l-195.413 195.413 195.413 195.84-60.16 60.16-256-256 256-256 60.16 60.587z" />
<glyph unicode="&#xe715;" glyph-name="chevron-left-circle" d="M938.667 426.667c0-235.641-191.025-426.667-426.667-426.667v0c-235.641 0-426.667 191.025-426.667 426.667v0c0 235.641 191.025 426.667 426.667 426.667v0c235.641 0 426.667-191.025 426.667-426.667v0zM853.333 426.667c0 188.513-152.82 341.333-341.333 341.333v0c-188.513 0-341.333-152.82-341.333-341.333v0c0-188.513 152.82-341.333 341.333-341.333v0c188.513 0 341.333 152.82 341.333 341.333v0zM657.067 230.4l-196.267 196.267 196.267 196.267-59.733 59.733-256-256 256-256 59.733 59.733z" />
<glyph unicode="&#xe716;" glyph-name="chevron-right" d="M366.507 231.254l195.413 195.413-195.413 195.84 60.16 60.16 256-256-256-256-60.16 60.587z" />
<glyph unicode="&#xe717;" glyph-name="chevron-right-circle" d="M938.667 426.667c0-235.641-191.025-426.667-426.667-426.667v0c-235.641 0-426.667 191.025-426.667 426.667v0c0 235.641 191.025 426.667 426.667 426.667v0c235.641 0 426.667-191.025 426.667-426.667v0zM853.333 426.667c0 188.513-152.82 341.333-341.333 341.333v0c-188.513 0-341.333-152.82-341.333-341.333v0c0-188.513 152.82-341.333 341.333-341.333v0c188.513 0 341.333 152.82 341.333 341.333v0zM366.933 230.4l196.267 196.267-196.267 196.267 59.733 59.733 256-256-256-256-59.733 59.733z" />
<glyph unicode="&#xe718;" glyph-name="chevron-up" d="M316.16 281.174l195.84 195.413 195.84-195.413 60.16 60.16-256 256-256-256 60.16-60.16z" />
<glyph unicode="&#xe719;" glyph-name="chevron-up-circle" d="M938.667 426.667c0-235.641-191.025-426.667-426.667-426.667v0c-235.641 0-426.667 191.025-426.667 426.667v0c0 235.641 191.025 426.667 426.667 426.667v0c235.641 0 426.667-191.025 426.667-426.667v0zM853.333 426.667c0 188.513-152.82 341.333-341.333 341.333v0c-188.513 0-341.333-152.82-341.333-341.333v0c0-188.513 152.82-341.333 341.333-341.333v0c188.513 0 341.333 152.82 341.333 341.333v0zM315.733 281.6l196.267 196.267 196.267-196.267 59.733 59.733-256 256-256-256 59.733-59.733z" />
<glyph unicode="&#xe71a;" glyph-name="clock-time-three" d="M512 85.334c187.733 0 341.333 153.6 341.333 341.333s-153.6 341.333-341.333 341.333-341.333-153.6-341.333-341.333 153.6-341.333 341.333-341.333zM512 853.334c234.667 0 426.667-192 426.667-426.667s-192-426.667-426.667-426.667c-234.667 0-426.667 192-426.667 426.667s192 426.667 426.667 426.667zM725.333 448v-64h-256v256h64v-192h192z" />
<glyph unicode="&#xe71b;" glyph-name="close" d="M810.667 665.174l-60.16 60.16-238.507-238.507-238.507 238.507-60.16-60.16 238.507-238.507-238.507-238.507 60.16-60.16 238.507 238.507 238.507-238.507 60.16 60.16-238.507 238.507 238.507 238.507z" />
<glyph unicode="&#xe71c;" glyph-name="close-circle" d="M512 85.334c-188.16 0-341.333 153.173-341.333 341.333s153.173 341.333 341.333 341.333c188.16 0 341.333-153.173 341.333-341.333s-153.173-341.333-341.333-341.333zM512 853.334c-235.947 0-426.667-190.72-426.667-426.667s190.72-426.667 426.667-426.667c235.947 0 426.667 190.72 426.667 426.667s-190.72 426.667-426.667 426.667zM622.507 597.334l-110.507-110.507-110.507 110.507-60.16-60.16 110.507-110.507-110.507-110.507 60.16-60.16 110.507 110.507 110.507-110.507 60.16 60.16-110.507 110.507 110.507 110.507-60.16 60.16z" />
<glyph unicode="&#xe71d;" glyph-name="cog" d="M512 597.334c94.257 0 170.667-76.41 170.667-170.667v0c0-94.257-76.41-170.667-170.667-170.667v0c-94.257 0-170.667 76.41-170.667 170.667v0c0 94.257 76.41 170.667 170.667 170.667v0zM512 512c-47.128 0-85.333-38.205-85.333-85.333v0c0-47.128 38.205-85.333 85.333-85.333v0c47.128 0 85.333 38.205 85.333 85.333v0c0 47.128-38.205 85.333-85.333 85.333v0zM426.667 0c-10.667 0-19.627 7.68-21.333 17.92l-15.787 113.067c-26.88 10.667-49.92 25.173-72.107 42.24l-106.24-43.093c-9.387-3.413-20.907 0-26.027 9.387l-85.333 147.627c-5.547 9.387-2.987 20.907 5.12 27.307l90.027 70.827-2.987 41.387 2.987 42.667-90.027 69.547c-8.107 6.4-10.667 17.92-5.12 27.307l85.333 147.627c5.12 9.387 16.64 13.227 26.027 9.387l106.24-42.667c22.187 16.64 45.227 31.147 72.107 41.813l15.787 113.067c1.707 10.24 10.667 17.92 21.333 17.92h170.667c10.667 0 19.627-7.68 21.333-17.92l15.787-113.067c26.88-10.667 49.92-25.173 72.107-41.813l106.24 42.667c9.387 3.84 20.907 0 26.027-9.387l85.333-147.627c5.547-9.387 2.987-20.907-5.12-27.307l-90.027-69.547 2.987-42.667-2.987-42.667 90.027-69.547c8.107-6.4 10.667-17.92 5.12-27.307l-85.333-147.627c-5.12-9.387-16.64-13.227-26.027-9.387l-106.24 42.667c-22.187-16.64-45.227-31.147-72.107-41.813l-15.787-113.067c-1.707-10.24-10.667-17.92-21.333-17.92h-170.667zM480 768l-15.787-111.36c-51.2-10.667-96.427-37.973-129.28-75.947l-102.827 44.373-32-55.467 90.027-66.133c-17.067-49.92-17.067-104.107 0-153.6l-90.453-66.56 32-55.467 103.68 44.373c32.853-37.547 77.653-64.853 128.427-75.093l15.787-111.787h64.853l15.787 111.36c50.773 10.667 95.573 37.973 128.427 75.52l103.68-44.373 32 55.467-90.453 66.133c17.067 49.92 17.067 104.107 0 154.027l90.027 66.133-32 55.467-102.827-44.373c-32.853 37.973-78.080 65.28-129.28 75.52l-15.787 111.787h-64z" />
<glyph unicode="&#xe71e;" glyph-name="comment-text" d="M384 0c-23.564 0-42.667 19.103-42.667 42.667v0 128h-170.667c-47.128 0-85.333 38.205-85.333 85.333v0 512c0 47.36 38.4 85.333 85.333 85.333h682.667c47.128 0 85.333-38.205 85.333-85.333v0-512c0-47.128-38.205-85.333-85.333-85.333v0h-260.267l-157.867-158.293c-8.533-8.107-19.2-12.373-29.867-12.373v0h-21.333zM426.667 256v-131.413l131.413 131.413h295.253v512h-682.667v-512h256zM256 640h512v-85.333h-512v85.333zM256 469.334h384v-85.333h-384v85.333z" />
<glyph unicode="&#xe71f;" glyph-name="credit-card" d="M853.333 597.334h-682.667v85.333h682.667zM853.333 170.667h-682.667v256h682.667zM853.333 768h-682.667c-47.36 0-85.333-37.973-85.333-85.333v-512c0-47.128 38.205-85.333 85.333-85.333v0h682.667c47.128 0 85.333 38.205 85.333 85.333v0 512c0 47.36-38.4 85.333-85.333 85.333z" />
<glyph unicode="&#xe720;" glyph-name="cube" d="M896 234.667c0-16.213-8.96-30.293-22.613-37.547l-337.067-189.44c-6.827-5.12-15.36-7.68-24.32-7.68s-17.493 2.56-24.32 7.68l-337.067 189.44c-13.653 7.253-22.613 21.333-22.613 37.547v384c0 16.213 8.96 30.293 22.613 37.547l337.067 189.44c6.827 5.12 15.36 7.68 24.32 7.68s17.493-2.56 24.32-7.68l337.067-189.44c13.653-7.253 22.613-21.333 22.613-37.547v-384zM512 761.6l-254.293-142.933 254.293-142.933 254.293 142.933-254.293 142.933zM213.333 259.84l256-144.213v286.293l-256 143.787v-285.867zM810.667 259.84v285.867l-256-143.787v-286.293l256 144.213z" />
<glyph unicode="&#xe721;" glyph-name="cursor-default-click" d="M490.667 469.334l272.213-229.12-37.547-7.68-27.307-5.12c-26.88-5.547-42.24-35.413-30.293-59.733l11.52-24.747 58.027-125.44-60.587-28.16-58.027 125.013-11.093 24.747c-11.52 25.173-43.52 32.853-64.853 15.36l-21.76-17.067-30.293-24.32v356.267zM459.093 567.894c-17.909 0-32.427-14.518-32.427-32.427v0-488.533c0-17.92 14.507-32.427 32.427-32.427 8.107 0 14.933 2.56 20.48 6.827l81.493 66.133 70.827-154.453c5.547-11.52 17.067-18.347 29.44-18.347 4.693 0 9.387 0 14.080 3.413l117.76 54.613c16.213 7.68 23.893 27.307 15.36 43.093l-71.253 154.88 102.827 19.2c6.827 2.133 13.227 5.12 18.347 11.093 11.52 13.653 9.813 33.707-5.12 46.080l-372.907 313.6-0.427-0.427c-5.547 4.693-12.8 7.68-20.907 7.68zM640 512v85.333h213.333v-85.333h-213.333zM590.080 735.574l120.747 120.747 60.16-60.16-120.747-120.747-60.16 60.16zM426.667 938.667h85.333v-213.333h-85.333v213.333zM167.68 313.174l120.747 120.747 60.16-60.16-120.747-120.747-60.16 60.16zM167.68 796.16l60.16 60.16 120.747-120.747-60.16-60.16-120.747 120.747zM298.667 512h-213.333v85.333h213.333v-85.333z" />
<glyph unicode="&#xe722;" glyph-name="database" d="M512 810.667c-188.587 0-341.333-76.373-341.333-170.667v-426.667c0-94.293 153.173-170.667 341.333-170.667s341.333 76.373 341.333 170.667v426.667c0 94.293-152.747 170.667-341.333 170.667zM768 213.334c0-21.333-90.88-85.333-256-85.333s-256 64-256 85.333v95.147c68.693-33.28 158.72-52.48 256-52.48s187.307 19.2 256 52.48v-95.147zM768 407.467c-55.467-40.533-152.747-66.133-256-66.133s-200.533 25.6-256 66.133v119.893c62.72-35.413 154.027-58.027 256-58.027s193.28 22.613 256 58.027v-119.893zM512 554.667c-165.12 0-256 64-256 85.333s90.88 85.333 256 85.333c165.12 0 256-64 256-85.333s-90.88-85.333-256-85.333z" />
<glyph unicode="&#xe723;" glyph-name="dots-horizontal-circle" d="M512 853.334c235.641 0 426.667-191.025 426.667-426.667v0c0-235.641-191.025-426.667-426.667-426.667v0c-235.641 0-426.667 191.025-426.667 426.667v0c0 235.641 191.025 426.667 426.667 426.667v0zM512 768c-188.513 0-341.333-152.82-341.333-341.333v0c0-188.513 152.82-341.333 341.333-341.333v0c188.513 0 341.333 152.82 341.333 341.333v0c0 188.513-152.82 341.333-341.333 341.333v0zM512 490.667c35.346 0 64-28.654 64-64v0c0-35.346-28.654-64-64-64v0c-35.346 0-64 28.654-64 64v0c0 35.346 28.654 64 64 64v0zM320 490.667c35.346 0 64-28.654 64-64v0c0-35.346-28.654-64-64-64v0c-35.346 0-64 28.654-64 64v0c0 35.346 28.654 64 64 64v0zM704 490.667c35.346 0 64-28.654 64-64v0c0-35.346-28.654-64-64-64v0c-35.346 0-64 28.654-64 64v0c0 35.346 28.654 64 64 64v0z" />
<glyph unicode="&#xe724;" glyph-name="email" d="M938.667 682.667c0 46.933-38.4 85.333-85.333 85.333h-682.667c-46.933 0-85.333-38.4-85.333-85.333v-512c0-46.933 38.4-85.333 85.333-85.333h682.667c46.933 0 85.333 38.4 85.333 85.333v512zM853.333 682.667l-341.333-213.333-341.333 213.333h682.667zM853.333 170.667h-682.667v426.667l341.333-213.333 341.333 213.333v-426.667z" />
<glyph unicode="&#xe725;" glyph-name="equalizer" d="M640 42.667h-256v768h256v-768zM469.333 128h85.333v597.333h-85.333v-597.333zM341.333 42.667h-256v426.667h256v-426.667zM170.667 128h85.333v256h-85.333v-256zM938.667 42.667h-256v554.667h256v-554.667zM768 128h85.333v384h-85.333v-384z" />
<glyph unicode="&#xe726;" glyph-name="flag" d="M527.36 682.667l17.067-85.333h223.573v-256h-143.36l-17.067 85.333h-308.907v256h228.693zM597.333 768h-384v-725.333h85.333v298.667h238.933l17.067-85.333h298.667v426.667h-238.933z" />
<glyph unicode="&#xe727;" glyph-name="gift" d="M938.667 426.667v-341.333c0-47.128-38.205-85.333-85.333-85.333v0h-682.667c-47.128 0-85.333 38.205-85.333 85.333v0 341.333c-23.564 0-42.667 19.103-42.667 42.667v0 128c0 47.128 38.205 85.333 85.333 85.333v0h135.253c-4.693 13.227-7.253 27.733-7.253 42.667 0 70.692 57.308 128 128 128v0c42.667 0 80.213-21.333 103.68-52.907v0.427l24.32-32.853 24.32 32.853v-0.427c23.467 31.573 61.013 52.907 103.68 52.907 70.692 0 128-57.308 128-128v0c0-14.933-2.56-29.44-7.253-42.667h135.253c47.128 0 85.333-38.205 85.333-85.333v0-128c0-23.564-19.103-42.667-42.667-42.667v0zM170.667 85.334h298.667v341.333h-298.667v-341.333zM853.333 85.334v341.333h-298.667v-341.333h298.667zM384 768c-23.564 0-42.667-19.103-42.667-42.667v0c0-23.564 19.103-42.667 42.667-42.667v0c23.564 0 42.667 19.103 42.667 42.667v0c0 23.564-19.103 42.667-42.667 42.667v0zM640 768c-23.564 0-42.667-19.103-42.667-42.667v0c0-23.564 19.103-42.667 42.667-42.667v0c23.564 0 42.667 19.103 42.667 42.667v0c0 23.564-19.103 42.667-42.667 42.667v0zM128 597.334v-85.333h341.333v85.333h-341.333zM554.667 597.334v-85.333h341.333v85.333h-341.333z" />
<glyph unicode="&#xe728;" glyph-name="globe-model" d="M740.693 826.027l-60.16-60.587c55.893-55.893 87.467-131.413 87.467-210.773 0-164.949-133.718-298.667-298.667-298.667v0c-78.933 0-154.88 31.573-210.773 87.467l-60.587-60.16c61.44-61.44 142.080-100.267 228.693-109.653v-88.32h-170.667v-85.333h426.667v85.333h-170.667v87.893c194.133 21.76 341.333 186.027 341.333 381.44 0 101.547-40.533 199.253-112.64 271.36zM469.333 789.334c-129.603 0-234.667-105.064-234.667-234.667v0c0-129.603 105.064-234.667 234.667-234.667v0c129.603 0 234.667 105.064 234.667 234.667v0c0 129.603-105.064 234.667-234.667 234.667v0zM469.333 704c82.773 0 149.333-66.987 149.333-149.333 0-82.475-66.859-149.333-149.333-149.333v0c-82.475 0-149.333 66.859-149.333 149.333v0c0 82.475 66.859 149.333 149.333 149.333v0z" />
<glyph unicode="&#xe729;" glyph-name="heart" d="M870.4 750.934c42.667-42.667 68.267-98.133 68.267-166.4 0-76.8-34.133-157.867-98.133-230.4-64-76.8-153.6-162.133-264.533-260.267l-64-59.733-64 55.467c-110.933 98.133-200.533 183.467-264.533 260.267s-98.133 153.6-98.133 234.667c0 68.267 25.6 123.733 68.267 166.4s98.133 68.267 166.4 68.267c38.4 0 72.533-8.533 106.667-25.6s64-38.4 85.333-64c25.6 25.6 51.2 46.933 85.333 64s68.267 25.6 106.667 25.6c68.267-4.267 123.733-25.6 166.4-68.267zM759.467 392.534c59.733 68.267 89.6 132.267 93.867 192 0 42.667-17.067 76.8-42.667 106.667s-64 42.667-106.667 42.667c-34.133 0-64-8.533-93.867-29.867-29.867-17.067-46.933-42.667-59.733-72.533h-81.067c-12.8 29.867-34.133 51.2-59.733 72.533-25.6 17.067-55.467 25.6-89.6 25.6-42.667 0-81.067-12.8-106.667-42.667s-42.667-59.733-42.667-102.4c0-59.733 34.133-123.733 93.867-192s140.8-145.067 243.2-238.933l4.267-4.267 4.267 4.267c102.4 89.6 183.467 170.667 243.2 238.933z" />
<glyph unicode="&#xe72a;" glyph-name="home" d="M512 695.894l213.333-192v-333.227h-85.333v256h-256v-256h-85.333v333.227l213.333 192zM512 810.667l-426.667-384h128v-341.333h256v256h85.333v-256h256v341.333h128l-426.667 384z" />
<glyph unicode="&#xe72b;" glyph-name="image-filter-drama" d="M810.667 170.667h-554.667c-94.257 0-170.667 76.41-170.667 170.667v0c0 94.257 76.41 170.667 170.667 170.667v0c94.257 0 170.667-76.41 170.667-170.667v0h85.333c0 117.76-79.36 216.747-187.733 246.613 43.093 57.173 110.933 94.72 187.733 94.72 129.28 0 234.667-105.387 234.667-234.667v-21.333h64c70.692 0 128-57.308 128-128v0c0-70.692-57.308-128-128-128v0zM825.6 510.294c-29.013 147.2-158.293 257.707-313.6 257.707-123.307 0-229.973-69.973-283.307-172.373-128.427-13.653-228.693-122.027-228.693-254.293 0-141.385 114.615-256 256-256v0h554.667c117.821 0 213.333 95.513 213.333 213.333v0c0 112.64-87.467 203.947-198.4 211.627z" />
<glyph unicode="&#xe72c;" glyph-name="information" d="M469.333 554.667h85.333v85.333h-85.333zM512 85.334c-188.16 0-341.333 153.173-341.333 341.333s153.173 341.333 341.333 341.333c188.16 0 341.333-153.173 341.333-341.333s-153.173-341.333-341.333-341.333zM512 853.334c-235.641 0-426.667-191.025-426.667-426.667v0c0-235.641 191.025-426.667 426.667-426.667v0c235.641 0 426.667 191.025 426.667 426.667v0c0 235.641-191.025 426.667-426.667 426.667v0zM469.333 213.334h85.333v256h-85.333v-256z" />
<glyph unicode="&#xe72d;" glyph-name="key" d="M896 170.667h-256v128h-72.533c-46.933-102.4-153.6-170.667-268.8-170.667-166.4 0-298.667 132.267-298.667 298.667s132.267 298.667 298.667 298.667c115.2 0 221.867-68.267 268.8-170.667h456.533v-256h-128v-128zM725.333 256h85.333v128h128v85.333h-430.933l-8.533 29.867c-29.867 85.333-110.933 140.8-200.533 140.8-119.467 0-213.333-93.867-213.333-213.333s93.867-213.333 213.333-213.333c89.6 0 170.667 55.467 200.533 140.8l8.533 29.867h217.6v-128zM298.667 298.667c-72.533 0-128 55.467-128 128s55.467 128 128 128 128-55.467 128-128-55.467-128-128-128zM298.667 469.334c-25.6 0-42.667-17.067-42.667-42.667s17.067-42.667 42.667-42.667 42.667 17.067 42.667 42.667-17.067 42.667-42.667 42.667z" />
<glyph unicode="&#xe72e;" glyph-name="lifebuoy" d="M844.373 281.174c40.533 92.587 40.533 198.827 0 290.987l-116.907-52.907c25.6-58.88 25.6-125.867 0.427-185.173l116.48-52.907zM657.92 759.040c-92.587 40.533-198.827 40.533-291.413 0l52.907-116.48c59.307 25.173 126.293 25.173 185.6-0.427l52.907 116.907zM179.627 572.587c-40.533-93.013-40.533-198.827 0-291.84l116.907 53.333c-25.6 58.88-25.6 126.293 0 185.6l-116.907 52.907zM366.507 94.294c92.587-40.533 198.827-40.533 291.413 0.427l-52.907 116.48c-58.88-25.6-126.293-25.6-185.173-0.427l-53.333-116.48zM512 853.334c235.641 0 426.667-191.025 426.667-426.667v0c0-235.641-191.025-426.667-426.667-426.667v0c-235.641 0-426.667 191.025-426.667 426.667v0c0 235.641 191.025 426.667 426.667 426.667v0zM512 597.334c-94.257 0-170.667-76.41-170.667-170.667v0c0-94.257 76.41-170.667 170.667-170.667v0c94.257 0 170.667 76.41 170.667 170.667v0c0 94.257-76.41 170.667-170.667 170.667v0z" />
<glyph unicode="&#xe72f;" glyph-name="link-variant" d="M451.84 366.507c17.493-16.64 17.493-43.947 0-60.587-16.64-16.64-43.947-16.64-60.587 0-83.2 83.2-83.2 218.453 0 301.653v0l151.040 151.040c83.2 83.2 218.453 83.2 301.653 0s83.2-218.453 0-301.653l-63.573-63.573c0.427 34.987-5.12 69.973-17.067 103.253l20.053 20.48c50.347 49.92 50.347 130.987 0 180.907-49.92 50.347-130.987 50.347-180.907 0l-150.613-150.613c-50.347-49.92-50.347-130.987 0-180.907zM572.16 547.414c16.64 16.64 43.947 16.64 60.587 0 83.2-83.2 83.2-218.453 0-301.653v0l-151.040-151.040c-83.2-83.2-218.453-83.2-301.653 0s-83.2 218.453 0 301.653l63.573 63.573c-0.427-34.987 5.12-69.973 17.067-103.68l-20.053-20.053c-50.347-49.92-50.347-130.987 0-180.907 49.92-50.347 130.987-50.347 180.907 0l150.613 150.613c50.347 49.92 50.347 130.987 0 180.907-17.493 16.64-17.493 43.947 0 60.587z" />
<glyph unicode="&#xe730;" glyph-name="lock" d="M512 213.334c-47.36 0-85.333 38.4-85.333 85.333 0 47.36 37.973 85.333 85.333 85.333 47.128 0 85.333-38.205 85.333-85.333v0c0-47.128-38.205-85.333-85.333-85.333v0zM768 85.334v426.667h-512v-426.667h512zM768 597.334c47.128 0 85.333-38.205 85.333-85.333v0-426.667c0-47.128-38.205-85.333-85.333-85.333v0h-512c-47.36 0-85.333 38.4-85.333 85.333v426.667c0 47.36 37.973 85.333 85.333 85.333h42.667v85.333c0 117.821 95.513 213.333 213.333 213.333v0c117.821 0 213.333-95.513 213.333-213.333v0-85.333h42.667zM512 810.667c-70.692 0-128-57.308-128-128v0-85.333h256v85.333c0 70.692-57.308 128-128 128v0z" />
<glyph unicode="&#xe731;" glyph-name="logout" d="M682.667 213.334v128h-298.667v170.667h298.667v128l213.333-213.333-213.333-213.333zM597.333 853.334c47.128 0 85.333-38.205 85.333-85.333v0-85.333h-85.333v85.333h-384v-682.667h384v85.333h85.333v-85.333c0-47.128-38.205-85.333-85.333-85.333v0h-384c-47.128 0-85.333 38.205-85.333 85.333v0 682.667c0 47.128 38.205 85.333 85.333 85.333v0h384z" />
<glyph unicode="&#xe732;" glyph-name="magnify" d="M405.333 810.667c153.167 0 277.333-124.166 277.333-277.333v0c0-68.693-25.173-131.84-66.56-180.48l11.52-11.52h33.707l213.333-213.333-64-64-213.333 213.333v33.707l-11.52 11.52c-48.64-41.387-111.787-66.56-180.48-66.56-153.167 0-277.333 124.166-277.333 277.333v0c0 153.167 124.166 277.333 277.333 277.333v0zM405.333 725.334c-106.667 0-192-85.333-192-192s85.333-192 192-192c106.667 0 192 85.333 192 192s-85.333 192-192 192z" />
<glyph unicode="&#xe733;" glyph-name="map" d="M874.667 810.667l-6.827-1.28-227.84-88.32-256 89.6-240.64-81.067c-8.96-2.987-15.36-10.667-15.36-20.48v-645.12c0-11.782 9.551-21.333 21.333-21.333v0l6.827 1.28 227.84 88.32 256-89.6 240.64 81.067c8.96 2.987 15.36 10.667 15.36 20.48v645.12c0 11.782-9.551 21.333-21.333 21.333v0zM426.667 705.28l170.667-59.733v-497.493l-170.667 59.733v497.493zM213.333 663.040l128 43.093v-499.2l-128-49.493v505.6zM810.667 190.294l-128-43.093v498.773l128 49.493v-505.173z" />
<glyph unicode="&#xe734;" glyph-name="map-marker" d="M512 661.334c58.91 0 106.667-47.756 106.667-106.667v0c0-58.91-47.756-106.667-106.667-106.667v0c-58.91 0-106.667 47.756-106.667 106.667v0c0 58.91 47.756 106.667 106.667 106.667v0zM512 853.334c164.949 0 298.667-133.718 298.667-298.667v0c0-224-298.667-554.667-298.667-554.667s-298.667 330.667-298.667 554.667c0 164.949 133.718 298.667 298.667 298.667v0zM512 768c-117.821 0-213.333-95.513-213.333-213.333v0c0-42.667 0-128 213.333-414.293 213.333 286.293 213.333 371.627 213.333 414.293 0 117.821-95.513 213.333-213.333 213.333v0z" />
<glyph unicode="&#xe735;" glyph-name="menu" d="M128 682.667h768v-85.333h-768v85.333zM128 469.334h768v-85.333h-768v85.333zM128 256h768v-85.333h-768v85.333z" />
<glyph unicode="&#xe736;" glyph-name="monitor" d="M896 256h-768v512h768zM896 853.334h-768c-47.36 0-85.333-37.973-85.333-85.333v-512c0-47.128 38.205-85.333 85.333-85.333v0h298.667v-85.333h-85.333v-85.333h341.333v85.333h-85.333v85.333h298.667c47.128 0 85.333 38.205 85.333 85.333v0 512c0 47.36-38.4 85.333-85.333 85.333z" />
<glyph unicode="&#xe737;" glyph-name="phone" d="M853.333 277.334c-51.2 0-106.667 8.533-153.6 25.6-4.267 0-8.533 0-12.8 0-12.8 0-21.333-4.267-29.867-12.8l-93.867-93.867c-119.467 64-221.867 162.133-281.6 281.6l93.867 93.867c12.8 12.8 17.067 29.867 8.533 42.667-12.8 46.933-21.333 102.4-21.333 153.6 0 21.333-21.333 42.667-42.667 42.667h-149.333c-21.333 0-42.667-21.333-42.667-42.667 0-401.067 324.267-725.333 725.333-725.333 21.333 0 42.667 21.333 42.667 42.667v149.333c0 21.333-21.333 42.667-42.667 42.667zM213.333 725.334h64c4.267-38.4 12.8-76.8 21.333-110.933l-51.2-51.2c-17.067 51.2-29.867 106.667-34.133 162.133zM810.667 128c-55.467 4.267-110.933 17.067-162.133 34.133l51.2 51.2c34.133-8.533 72.533-17.067 110.933-17.067v-68.267z" />
<glyph unicode="&#xe738;" glyph-name="pin" d="M682.667 426.667v341.333h42.667v85.333h-426.667v-85.333h42.667v-341.333l-85.333-85.333v-85.333h221.867v-256h68.267v256h221.867v85.333l-85.333 85.333zM375.467 341.334l51.2 51.2v375.467h170.667v-375.467l51.2-51.2h-273.067z" />
<glyph unicode="&#xe739;" glyph-name="share-variant" d="M768 252.587c-32.427 0-61.44-12.8-83.627-32.853l-304.213 177.067c2.133 9.813 3.84 19.627 3.84 29.867s-1.707 20.053-3.84 29.867l300.8 175.36c23.040-21.333 53.333-34.56 87.040-34.56 70.827 0 128 57.173 128 128s-57.173 128-128 128-128-57.173-128-128c0-10.24 1.707-20.053 3.84-29.867l-300.8-175.36c-23.040 21.333-53.333 34.56-87.040 34.56-70.827 0-128-57.173-128-128s57.173-128 128-128c33.707 0 64 13.227 87.040 34.56l303.787-177.067c-2.133-8.96-3.413-18.347-3.413-28.16 0-68.693 55.893-124.16 124.587-124.16s124.587 55.467 124.587 124.16c0 68.693-55.893 124.587-124.587 124.587zM768 768c23.467 0 42.667-19.2 42.667-42.667s-19.2-42.667-42.667-42.667-42.667 19.2-42.667 42.667 19.2 42.667 42.667 42.667zM256 384c-23.467 0-42.667 19.2-42.667 42.667s19.2 42.667 42.667 42.667 42.667-19.2 42.667-42.667-19.2-42.667-42.667-42.667zM768 85.334c-23.467 0-42.667 19.2-42.667 42.667s19.2 42.667 42.667 42.667 42.667-19.2 42.667-42.667-19.2-42.667-42.667-42.667z" />
<glyph unicode="&#xe73a;" glyph-name="shopping-bag" d="M810.667 682.667h-85.333c0 119.467-93.867 213.333-213.333 213.333s-213.333-93.867-213.333-213.333h-85.333c-46.933 0-85.333-38.4-85.333-85.333v-512c0-46.933 38.4-85.333 85.333-85.333h597.333c46.933 0 85.333 38.4 85.333 85.333v512c0 46.933-38.4 85.333-85.333 85.333zM512 810.667c72.533 0 128-55.467 128-128h-256c0 72.533 55.467 128 128 128zM810.667 85.334h-597.333v512h85.333v-85.333h85.333v85.333h256v-85.333h85.333v85.333h85.333v-512z" />
<glyph unicode="&#xe73b;" glyph-name="shopping-cart" d="M341.333 170.667c-25.6 0-42.667-8.533-59.733-25.6s-25.6-34.133-25.6-59.733 8.533-46.933 25.6-59.733 34.133-25.6 59.733-25.6 42.667 8.533 59.733 25.6 25.6 34.133 25.6 59.733-8.533 42.667-25.6 59.733-34.133 25.6-59.733 25.6zM768 170.667c-25.6 0-46.933-8.533-64-25.6s-21.333-34.133-21.333-59.733 8.533-46.933 25.6-59.733 34.133-25.6 59.733-25.6 46.933 8.533 59.733 25.6 25.6 34.133 25.6 59.733-8.533 42.667-25.6 59.733-34.133 25.6-59.733 25.6zM930.133 665.6c-8.533 8.533-21.333 17.067-34.133 17.067h-469.333v-85.333h409.6l-98.133-256h-362.667l-119.467 477.867c-4.267 21.333-21.333 34.133-42.667 34.133h-128v-85.333h93.867l119.467-482.133c4.267-17.067 21.333-29.867 42.667-29.867h426.667c17.067 0 34.133 12.8 38.4 25.6l128 341.333c8.533 12.8 4.267 29.867-4.267 42.667z" />
<glyph unicode="&#xe73c;" glyph-name="star" d="M512 282.027l-160.427-96.853 42.24 182.613-141.653 122.88 186.88 15.787 72.96 172.373 72.96-172.373 186.88-15.787-141.653-122.88 42.24-182.613zM938.667 544.427l-306.773 26.027-119.893 282.88-119.893-282.88-306.773-26.027 232.533-201.813-69.547-299.947 263.68 159.147 263.68-159.147-69.973 299.947 232.96 201.813z" />
<glyph unicode="&#xe73d;" glyph-name="tag" d="M913.493 444.587l-384 384c-15.417 15.295-36.651 24.747-60.092 24.747-0.024 0-0.048 0-0.072 0h-298.663c-47.128 0-85.333-38.205-85.333-85.333v0-298.667c0-0.020 0-0.044 0-0.068 0-23.653 9.624-45.059 25.169-60.515l384.004-384.004c15.417-15.295 36.651-24.747 60.092-24.747 0.024 0 0.048 0 0.072 0h-0.004c23.523 0.102 44.783 9.706 60.156 25.169l298.671 298.671c15.467 15.377 25.071 36.637 25.173 60.14v0.020c0 0.020 0 0.044 0 0.068 0 23.653-9.624 45.059-25.169 60.515l-0.004 0.004zM554.667 85.334l-384 384v298.667h298.667l384-384zM277.333 725.334c35.346 0 64-28.654 64-64s-28.654-64-64-64c-35.346 0-64 28.654-64 64v0c0 35.346 28.654 64 64 64v0z" />
<glyph unicode="&#xe73e;" glyph-name="tune" d="M128 213.334v-85.333h256v85.333h-256zM128 725.334v-85.333h426.667v85.333h-426.667zM554.667 42.667v85.333h341.333v85.333h-341.333v85.333h-85.333v-256h85.333zM298.667 554.667v-85.333h-170.667v-85.333h170.667v-85.333h85.333v256h-85.333zM896 384v85.333h-426.667v-85.333h426.667zM640 554.667h85.333v85.333h170.667v85.333h-170.667v85.333h-85.333v-256z" />
<glyph unicode="&#xe73f;" glyph-name="weather-night" d="M757.333 764.16l-107.947-82.773 38.827-130.56-112.213 77.227-112.213-77.227 38.827 130.56-107.947 82.773 136.107 3.84 45.227 128 45.227-128 136.107-3.84zM906.667 469.334l-69.973-53.333 25.173-84.48-72.533 49.92-72.533-49.92 25.173 84.48-69.973 53.333 87.893 2.133 29.44 83.2 29.44-83.2 87.893-2.133zM809.387 258.134c35.413 3.413 73.387-46.933 50.773-78.933-13.653-19.2-28.16-37.12-46.080-54.187-166.827-167.68-436.907-167.68-603.307 0-166.827 166.4-166.827 436.907 0 603.307 17.067 17.067 34.987 32.427 54.187 46.080 32 22.613 82.347-15.36 78.933-50.773-11.52-122.027 29.44-248.747 123.307-342.187 93.44-93.867 219.733-134.827 342.187-123.307zM739.413 171.947c-120.747 6.827-240.213 56.747-332.8 148.053-92.587 93.44-142.080 213.333-148.907 333.653-119.893-133.973-115.2-339.627 13.227-468.48 128.853-128.427 334.507-133.12 468.48-13.227z" />
<glyph unicode="&#xe740;" glyph-name="weather-sunny" d="M512 640c117.821 0 213.333-95.513 213.333-213.333v0c0-117.821-95.513-213.333-213.333-213.333v0c-117.821 0-213.333 95.513-213.333 213.333v0c0 117.821 95.513 213.333 213.333 213.333v0zM512 554.667c-70.692 0-128-57.308-128-128v0c0-70.692 57.308-128 128-128v0c70.692 0 128 57.308 128 128v0c0 70.692-57.308 128-128 128v0zM512 853.334l101.973-145.92c-31.573 11.52-66.133 17.92-101.973 17.92s-70.4-6.4-101.973-17.92l101.973 145.92zM142.507 640l177.493 14.933c-25.6-21.76-48.64-48.213-66.56-78.933-18.773-31.573-29.44-64-35.413-97.707l-75.52 161.707zM143.36 213.334l75.093 160.853c5.973-32.853 17.493-66.133 35.413-96.853 17.92-31.573 40.96-58.027 66.133-79.787l-176.64 15.787zM881.067 640l-75.52-161.707c-5.973 33.707-17.493 66.56-35.413 97.707-17.92 30.72-40.533 57.6-66.133 79.36l177.067-15.36zM880.64 213.334l-176.64-15.36c25.173 21.76 47.787 48.64 65.707 79.36 17.92 31.147 29.44 64 35.413 97.707l75.52-161.707zM512 0l-102.827 146.773c31.573-11.52 66.133-18.773 102.827-18.773 34.987 0 69.547 7.253 101.12 18.773l-101.12-146.773z" />
<glyph unicode="&#xe741;" glyph-name="web" d="M698.027 341.334c3.413 28.16 5.973 56.32 5.973 85.333s-2.56 57.173-5.973 85.333h144.213c6.827-27.307 11.093-55.893 11.093-85.333s-4.267-58.027-11.093-85.333zM622.507 104.107c25.6 47.36 45.227 98.56 58.88 151.893h125.867c-40.96-70.4-106.24-125.013-184.747-151.893zM611.84 341.334h-199.68c-4.267 28.16-6.827 56.32-6.827 85.333s2.56 57.6 6.827 85.333h199.68c3.84-27.733 6.827-56.32 6.827-85.333s-2.987-57.173-6.827-85.333zM512 87.040c-35.413 51.2-64 107.947-81.493 168.96h162.987c-17.493-61.013-46.080-117.76-81.493-168.96zM341.333 597.334h-124.587c40.533 70.827 106.24 125.44 184.32 151.893-25.6-47.36-44.8-98.56-59.733-151.893zM216.747 256h124.587c14.933-53.333 34.133-104.533 59.733-151.893-78.080 26.88-143.787 81.493-184.32 151.893zM181.76 341.334c-6.827 27.307-11.093 55.893-11.093 85.333s4.267 58.027 11.093 85.333h144.213c-3.413-28.16-5.973-56.32-5.973-85.333s2.56-57.173 5.973-85.333zM512 766.72c35.413-51.2 64-108.373 81.493-169.387h-162.987c17.493 61.013 46.080 118.187 81.493 169.387zM807.253 597.334h-125.867c-13.653 53.333-33.28 104.533-58.88 151.893 78.507-26.88 143.787-81.067 184.747-151.893zM512 853.334c-235.947 0-426.667-192-426.667-426.667 0-235.641 191.025-426.667 426.667-426.667v0c235.641 0 426.667 191.025 426.667 426.667v0c0 235.641-191.025 426.667-426.667 426.667v0z" />
<glyph unicode="&#xe742;" glyph-name="wrench" d="M964.693 128l-387.413 387.84c39.68 99.84 20.053 217.6-61.44 298.667-98.133 98.133-250.88 107.093-359.68 27.733l163.84-164.267-60.587-59.307-163.413 162.56c-79.36-108.373-70.4-261.547 27.733-359.253 79.36-79.36 194.987-100.267 293.973-63.147l388.693-388.693c16.64-16.64 43.52-16.64 60.16 0l98.133 98.133c16.64 17.067 16.64 43.093 0 59.733zM836.693 60.16l-403.627 403.627c-26.027-19.2-55.040-30.72-85.333-34.987-58.027-8.533-119.040 8.96-163.413 53.333-40.533 40.107-59.307 93.867-56.32 146.773l131.84-131.84 180.907 180.907-131.84 132.693c53.76 2.133 106.24-16.64 146.773-56.747 46.080-46.080 63.573-109.653 52.907-168.96-5.12-30.293-17.92-58.453-37.547-83.627l403.627-403.2-37.973-37.973z" />
<glyph unicode="&#xe900;" glyph-name="address-card" horiz-adv-x="1152" d="M1056 874.667h-960c-53 0-96-43-96-96v-704c0-53 43-96 96-96h960c53 0 96 43 96 96v704c0 53-43 96-96 96zM352 682.667c70.6 0 128-57.4 128-128s-57.4-128-128-128-128 57.4-128 128 57.4 128 128 128zM576 209.067c0-21.2-20-38.4-44.8-38.4h-358.4c-24.8 0-44.8 17.2-44.8 38.4v38.4c0 63.6 60.2 115.2 134.4 115.2h10c24.6-10.2 51.4-16 79.6-16s55.2 5.8 79.6 16h10c74.2 0 134.4-51.6 134.4-115.2v-38.4zM1024 314.667c0-8.8-7.2-16-16-16h-288c-8.8 0-16 7.2-16 16v32c0 8.8 7.2 16 16 16h288c8.8 0 16-7.2 16-16v-32zM1024 442.667c0-8.8-7.2-16-16-16h-288c-8.8 0-16 7.2-16 16v32c0 8.8 7.2 16 16 16h288c8.8 0 16-7.2 16-16v-32zM1024 570.667c0-8.8-7.2-16-16-16h-288c-8.8 0-16 7.2-16 16v32c0 8.8 7.2 16 16 16h288c8.8 0 16-7.2 16-16v-32z" />
<glyph unicode="&#xe901;" glyph-name="arrow-alt-circle-down" d="M1008 426.667c0-274-222-496-496-496s-496 222-496 496 222 496 496 496 496-222 496-496zM424 658.667v-232h-141.8c-21.4 0-32.2-26-17-41l229.8-228.6c9.4-9.4 24.4-9.4 33.8 0l229.8 228.6c15.2 15.2 4.4 41-17 41h-141.6v232c0 13.2-10.8 24-24 24h-128c-13.2 0-24-10.8-24-24z" />
<glyph unicode="&#xe902;" glyph-name="arrow-alt-circle-left" d="M512-69.333c-274 0-496 222-496 496s222 496 496 496 496-222 496-496-222-496-496-496zM744 514.667h-232v141.8c0 21.4-26 32.2-41 17l-228.6-229.8c-9.4-9.4-9.4-24.4 0-33.8l228.6-229.8c15.2-15.2 41-4.4 41 17v141.6h232c13.2 0 24 10.8 24 24v128c0 13.2-10.8 24-24 24z" />
<glyph unicode="&#xe903;" glyph-name="arrow-alt-circle-right" d="M512 922.667c274 0 496-222 496-496s-222-496-496-496-496 222-496 496 222 496 496 496zM280 338.667h232v-141.8c0-21.4 26-32.2 41-17l228.6 229.8c9.4 9.4 9.4 24.4 0 33.8l-228.6 230c-15.2 15.2-41 4.4-41-17v-141.8h-232c-13.2 0-24-10.8-24-24v-128c0-13.2 10.8-24 24-24z" />
<glyph unicode="&#xe904;" glyph-name="arrow-alt-circle-up" d="M16 426.667c0 274 222 496 496 496s496-222 496-496-222-496-496-496-496 222-496 496zM600 194.667v232h141.8c21.4 0 32.2 26 17 41l-229.8 228.6c-9.4 9.4-24.4 9.4-33.8 0l-230-228.6c-15.2-15.2-4.4-41 17-41h141.8v-232c0-13.2 10.8-24 24-24h128c13.2 0 24 10.8 24 24z" />
<glyph unicode="&#xe905;" glyph-name="at1" d="M512 922.667c-274.118 0-496-221.838-496-496 0-274.118 221.838-496 496-496 96.308 0 190.684 28.28 270.816 80.446 24.010 15.63 29.25 48.576 11.104 70.744l-20.354 24.866c-15.342 18.742-42.358 23.334-62.746 10.258-58.98-37.828-128.192-58.314-198.82-58.314-202.916 0-368 165.084-368 368s165.084 368 368 368c200.278 0 368-115.238 368-320 0-77.572-42.186-159.484-116.34-167.386-34.698 0.908-33.82 25.714-26.952 60.048l46.866 242.22c5.732 29.618-16.958 57.118-47.124 57.118h-89.962c0 0 0 0-0.001 0-13.857 0-25.279-10.425-26.851-23.859l-0.012-0.127-0.020-0.184c-29.394 35.802-80.896 43.55-119.942 43.55-149.16 0-275.662-124.468-275.662-302.92 0-130.606 73.57-211.74 192-211.74 53.968 0 114.738 31.274 149.982 76.666 19.044-68.208 81.226-68.206 141.42-68.206 217.816 0 300.598 143.224 300.598 294.82 0 272.694-219.954 448-496 448zM468.64 313.807c-44.498 0-72.14 31.246-72.14 81.542 0 89.986 61.558 145.458 117.26 145.458 44.584 0 71.202-30.482 71.202-81.54 0-90.122-67.75-145.46-116.322-145.46z" />
<glyph unicode="&#xe906;" glyph-name="award" horiz-adv-x="768" d="M194.24 213.407c-17.38 17.38-8.32 12.48-50.24 23.7-19.020 5.1-35.74 14.9-50.86 26.64l-90.74-222.48c-8.78-21.54 7.62-44.94 30.86-44.060l105.38 4.020 72.48-76.56c16-16.88 44.080-11.62 52.86 9.92l104.1 255.24c-21.68-12.080-45.74-19.16-70.62-19.16-39 0-75.64 15.18-103.22 42.74zM765.6 41.267l-90.74 222.48c-15.12-11.76-31.84-21.54-50.86-26.64-42.14-11.28-32.9-6.36-50.24-23.7-27.58-27.56-64.24-42.74-103.24-42.74-24.88 0-48.94 7.1-70.62 19.16l104.1-255.24c8.78-21.54 36.88-26.8 52.86-9.92l72.5 76.56 105.38-4.020c23.24-0.88 39.64 22.54 30.86 44.060zM526 258.667c30.56 31.1 34.060 28.42 77.58 40.28 27.78 7.58 49.5 29.68 56.94 57.96 14.96 56.8 11.080 49.94 51.9 91.5 20.34 20.7 28.28 50.88 20.84 79.16-14.94 56.76-14.96 48.84 0 105.66 7.44 28.28-0.5 58.46-20.84 79.16-40.82 41.56-36.94 34.72-51.9 91.5-7.44 28.28-29.16 50.38-56.94 57.96-55.76 15.22-49.040 11.24-89.9 52.82-20.34 20.7-50 28.8-77.78 21.22-55.74-15.2-47.96-15.22-103.8 0-27.78 7.58-57.44-0.5-77.78-21.22-40.82-41.56-34.1-37.6-89.88-52.82-27.78-7.58-49.5-29.68-56.94-57.96-14.94-56.78-11.080-49.94-51.9-91.5-20.34-20.7-28.3-50.88-20.84-79.16 14.94-56.72 14.96-48.8 0-105.64-7.44-28.28 0.5-58.46 20.84-79.18 40.82-41.56 36.94-34.7 51.9-91.5 7.44-28.28 29.16-50.38 56.94-57.96 44.76-12.2 48.1-10.28 77.56-40.28 26.46-26.94 67.68-31.76 99.48-11.64 12.043 7.753 26.748 12.36 42.53 12.36s30.487-4.607 42.845-12.549l-0.315 0.19c31.78-20.12 73-15.3 99.46 11.64zM195.32 586.747c0 106.060 84.48 192.040 188.68 192.040s188.68-85.98 188.68-192.040-84.48-192.040-188.68-192.040-188.68 85.98-188.68 192.040z" />
<glyph unicode="&#xe907;" glyph-name="ban" d="M512 922.667c-273.932 0-496-222.066-496-496s222.068-496 496-496 496 222.068 496 496-222.066 496-496 496zM772.216 686.883c130.896-130.896 140-330.962 41.354-471.274l-512.63 512.626c140.408 98.712 340.452 89.47 471.276-41.352zM251.784 166.451c-130.896 130.896-140 330.962-41.354 471.274l512.63-512.626c-140.406-98.712-340.452-89.472-471.276 41.352z" />
<glyph unicode="&#xe908;" glyph-name="bell1" horiz-adv-x="896" d="M448-85.333c70.64 0 127.94 57.3 127.94 128h-255.88c0-70.7 57.3-128 127.94-128zM878.78 214.087c-38.64 41.52-110.94 103.98-110.94 308.58 0 155.4-108.96 279.8-255.88 310.32v41.68c0 35.34-28.64 64-63.96 64s-63.96-28.66-63.96-64v-41.68c-146.92-30.52-255.88-154.92-255.88-310.32 0-204.6-72.3-267.060-110.94-308.58-12-12.9-17.32-28.32-17.22-43.42 0.22-32.8 25.96-64 64.2-64h767.6c38.24 0 64 31.2 64.2 64 0.1 15.1-5.22 30.54-17.22 43.42z" />
<glyph unicode="&#xe909;" glyph-name="bookmark1" horiz-adv-x="768" d="M0-85.333v928c0 53.020 42.98 96 96 96h576c53.020 0 96-42.98 96-96v-928l-384 224-384-224z" />
<glyph unicode="&#xe90a;" glyph-name="book-open" horiz-adv-x="1152" d="M1084.44 874.567c-109.6-6.22-327.44-28.86-461.92-111.18-9.28-5.68-14.54-15.78-14.54-26.34v-727.74c0-23.1 25.26-37.7 46.56-26.98 138.36 69.64 338.46 88.64 437.4 93.84 33.78 1.78 60.040 28.86 60.040 61.32v675.68c0.020 35.42-30.7 63.48-67.54 61.4zM529.46 763.387c-134.46 82.32-352.3 104.94-461.9 111.18-36.84 2.080-67.56-25.98-67.56-61.4v-675.7c0-32.48 26.26-59.56 60.040-61.32 98.98-5.2 299.18-24.22 437.54-93.9 21.24-10.7 46.42 3.88 46.42 26.92v728.24c0 10.58-5.24 20.28-14.54 25.98z" />
<glyph unicode="&#xe90b;" glyph-name="box" d="M1019 569.467l-101.2 303.6c-13 39.2-49.6 65.6-91 65.6h-282.8v-384h477.4c-0.8 5-0.8 10-2.4 14.8zM480 938.667h-282.8c-41.4 0-78-26.4-91-65.6l-101.2-303.6c-1.6-4.8-1.6-9.8-2.4-14.8h477.4v384zM0 490.667v-480c0-53 43-96 96-96h832c53 0 96 43 96 96v480h-1024z" />
<glyph unicode="&#xe90c;" glyph-name="bullhorn" horiz-adv-x="1152" d="M1152 458.667c0 47.26-25.9 88.080-64 110.24v305.74c0 17.5-13.96 64.020-64 64.020-14.24 0-28.38-4.76-39.96-14.040l-170.060-136.060c-85.42-68.28-192.66-105.9-301.98-105.9h-384c-70.7 0-128-57.3-128-128v-192c0-70.7 57.3-128 128-128h67.4c-2.78-20.96-4.36-42.28-4.36-64 0-79.54 18.52-154.7 51.12-221.88 10.38-21.38 33.040-34.12 56.8-34.12h148.56c52.1 0 83.38 59.68 51.8 101.12-32.8 43.040-52.3 96.72-52.3 154.88 0 22.22 3.24 43.58 8.82 64h56.16c109.32 0 216.56-37.62 301.96-105.9l170.060-136.060c10.844-8.735 24.783-14.026 39.957-14.040h0.003c49.84 0 64 45.56 64 64v305.74c38.12 22.18 64.020 63 64.020 110.26zM960 175.827l-66.1 52.88c-108 86.4-243.66 133.96-381.9 133.96v192c138.24 0 273.9 47.56 381.9 133.96l66.1 52.88v-565.68z" />
<glyph unicode="&#xe90d;" glyph-name="caret-down" horiz-adv-x="640" d="M62.6 554.667h514.6c35.6 0 53.4-43 28.2-68.2l-257.2-257.4c-15.6-15.6-41-15.6-56.6 0l-257.2 257.4c-25.2 25.2-7.4 68.2 28.2 68.2z" />
<glyph unicode="&#xe90e;" glyph-name="caret-left" horiz-adv-x="384" d="M384 683.991v-514.648c0-35.636-43.086-53.482-68.284-28.284l-257.324 257.324c-15.62 15.62-15.62 40.948 0 56.568l257.324 257.324c25.198 25.2 68.284 7.352 68.284-28.284z" />
<glyph unicode="&#xe90f;" glyph-name="caret-right" horiz-adv-x="384" d="M0 169.343v514.648c0 35.636 43.086 53.482 68.284 28.284l257.324-257.324c15.62-15.62 15.62-40.948 0-56.568l-257.324-257.324c-25.198-25.2-68.284-7.352-68.284 28.284z" />
<glyph unicode="&#xe910;" glyph-name="caret-up" horiz-adv-x="640" d="M577.324 234.667h-514.648c-35.636 0-53.482 43.086-28.284 68.284l257.324 257.324c15.62 15.62 40.948 15.62 56.568 0l257.324-257.324c25.2-25.198 7.352-68.284-28.284-68.284z" />
<glyph unicode="&#xe911;" glyph-name="certificate" d="M917.244 426.827l91.97 90.010c27.416 25.954 14.632 72.078-21.328 80.678l-125.3 31.98 35.322 124.030c9.982 35.676-23.658 69.326-59.322 59.342l-123.988-35.334-31.968 125.342c-8.46 35.398-55.1 48.344-80.65 21.336l-89.98-92.684-89.978 92.682c-25.26 26.702-72.094 14.468-80.65-21.336l-31.968-125.342-123.99 35.334c-35.674 9.988-69.302-23.674-59.322-59.342l35.322-124.030-125.3-31.98c-35.976-8.602-48.734-54.734-21.33-80.676l91.97-90.010-91.97-90.008c-27.416-25.954-14.632-72.078 21.328-80.678l125.3-31.98-35.322-124.030c-9.982-35.676 23.658-69.326 59.322-59.342l123.988 35.334 31.968-125.342c8.878-37.15 55.392-48.036 80.65-21.336l89.982 92.002 89.978-92.002c25-26.976 71.974-14.972 80.65 21.336l31.968 125.342 123.988-35.334c35.672-9.988 69.302 23.674 59.322 59.342l-35.322 124.030 125.3 31.98c35.974 8.604 48.732 54.734 21.328 80.678l-91.968 90.008z" />
<glyph unicode="&#xe912;" glyph-name="clock1" d="M512 922.667c-274 0-496-222-496-496s222-496 496-496 496 222 496 496-222 496-496 496zM696.98 296.667v0l-40-50c-5.914-7.349-14.907-12.012-24.99-12.012-7.592 0-14.566 2.644-20.052 7.060l0.062-0.048-134 99.44c-18.355 14.784-30 37.257-30 62.45 0 0.004 0 0.007 0 0.011v-0.001 311.1c0 17.673 14.327 32 32 32v0h64c17.673 0 32-14.327 32-32v0-288l116-85c7.348-5.914 12.010-14.906 12.010-24.988 0-7.601-2.65-14.584-7.078-20.073l0.048 0.061z" />
<glyph unicode="&#xe913;" glyph-name="cloud1" horiz-adv-x="1280" d="M1075.2 485.467c8.2 21.4 12.8 44.8 12.8 69.2 0 106-86 192-192 192-39.4 0-76.2-12-106.6-32.4-55.4 96-158.8 160.4-277.4 160.4-176.8 0-320-143.2-320-320 0-5.4 0.2-10.8 0.4-16.2-112-39.4-192.4-146.2-192.4-271.8 0-159 129-288 288-288h736c141.4 0 256 114.6 256 256 0 123.8-88 227.2-204.8 250.8z" />
<glyph unicode="&#xe914;" glyph-name="cog1" d="M974.8 307.267l-85.2 49.2c8.6 46.4 8.6 94 0 140.4l85.2 49.2c9.8 5.6 14.2 17.2 11 28-22.2 71.2-60 135.6-109.4 189.2-7.6 8.2-20 10.2-29.6 4.6l-85.2-49.2c-35.8 30.8-77 54.6-121.6 70.2v98.2c0 11.2-7.8 21-18.8 23.4-73.4 16.4-148.6 15.6-218.4 0-11-2.4-18.8-12.2-18.8-23.4v-98.4c-44.4-15.8-85.6-39.6-121.6-70.2l-85 49.2c-9.8 5.6-22 3.8-29.6-4.6-49.4-53.4-87.2-117.8-109.4-189.2-3.4-10.8 1.2-22.4 11-28l85.2-49.2c-8.6-46.4-8.6-94 0-140.4l-85.2-49.2c-9.8-5.6-14.2-17.2-11-28 22.2-71.2 60-135.6 109.4-189.2 7.6-8.2 20-10.2 29.6-4.6l85.2 49.2c35.8-30.8 77-54.6 121.6-70.2v-98.4c0-11.2 7.8-21 18.8-23.4 73.4-16.4 148.6-15.6 218.4 0 11 2.4 18.8 12.2 18.8 23.4v98.4c44.4 15.8 85.6 39.6 121.6 70.2l85.2-49.2c9.8-5.6 22-3.8 29.6 4.6 49.4 53.4 87.2 117.8 109.4 189.2 3 11-1.4 22.6-11.2 28.2zM512 266.667c-88.2 0-160 71.8-160 160s71.8 160 160 160 160-71.8 160-160-71.8-160-160-160z" />
<glyph unicode="&#xe915;" glyph-name="comment1" d="M512 874.667c-282.8 0-512-186.2-512-416 0-99.2 42.8-190 114-261.4-25-100.8-108.6-190.6-109.6-191.6-4.4-4.6-5.6-11.4-3-17.4s8.2-9.6 14.6-9.6c132.6 0 232 63.6 281.2 102.8 65.4-24.6 138-38.8 214.8-38.8 282.8 0 512 186.2 512 416s-229.2 416-512 416z" />
<glyph unicode="&#xe916;" glyph-name="comment-alt" d="M896 938.667h-768c-70.6 0-128-57.4-128-128v-576c0-70.6 57.4-128 128-128h192v-168c0-19.6 22.4-31 38.2-19.4l249.8 187.4h288c70.6 0 128 57.4 128 128v576c0 70.6-57.4 128-128 128z" />
<glyph unicode="&#xe917;" glyph-name="envelope" d="M1004.6 557.067c7.8 6.2 19.4 0.4 19.4-9.4v-409c0-53-43-96-96-96h-832c-53 0-96 43-96 96v408.8c0 10 11.4 15.6 19.4 9.4 44.8-34.8 104.2-79 308.2-227.2 42.2-30.8 113.4-95.6 184.4-95.2 71.4-0.6 144 65.6 184.6 95.2 204 148.2 263.2 192.6 308 227.4zM512 298.667c46.4-0.8 113.2 58.4 146.8 82.8 265.4 192.6 285.6 209.4 346.8 257.4 11.6 9 18.4 23 18.4 37.8v38c0 53-43 96-96 96h-832c-53 0-96-43-96-96v-38c0-14.8 6.8-28.6 18.4-37.8 61.2-47.8 81.4-64.8 346.8-257.4 33.6-24.4 100.4-83.6 146.8-82.8z" />
<glyph unicode="&#xe918;" glyph-name="fire-alt" horiz-adv-x="896" d="M647.12 836.267c-41.6-38.6-79.16-79.18-112.44-119.94-54.52 75.1-122.12 151.28-198.68 222.34-196.52-182.34-336-419.92-336-563.2 0-254.5 200.58-460.8 448-460.8s448 206.3 448 460.8c0 106.54-103.96 326.28-248.88 460.8zM608.18 154.967c-43.32-30.32-96.74-48.3-154.46-48.3-144.3 0-261.72 95.48-261.72 250.5 0 77.22 48.62 145.26 145.58 261.5 13.86-15.96 197.66-250.68 197.66-250.68l117.26 133.76c8.28-13.7 15.82-27.1 22.54-39.94 54.7-104.38 31.62-237.94-66.86-306.84z" />
<glyph unicode="&#xe919;" glyph-name="flag1" d="M699.13 741.101c-107.174 0-195.688 69.566-330.434 69.566-49.91 0-94.618-8.768-136.090-24.026 4.683 11.873 7.398 25.625 7.398 40.011 0 2.502-0.082 4.986-0.244 7.447l0.018-0.335c-3.544 56.872-50.166 102.49-107.102 104.806-63.986 2.604-116.676-48.496-116.676-111.904 0-38.052 18.994-71.65 48-91.89v-772.11c0-26.51 21.49-48 48-48h32c26.51 0 48 21.49 48 48v188.8c56.622 24.128 127.164 44.244 228.87 44.244 107.176 0 195.688-69.566 330.434-69.566 96.338 0 173.334 32.588 245.010 81.716 17.366 11.902 27.686 31.664 27.686 52.716v486.2c0 46.786-48.538 77.74-90.97 58.032-68.676-31.896-152.908-63.708-233.9-63.708z" />
<glyph unicode="&#xe91a;" glyph-name="folder" d="M928 682.667h-384l-128 128h-320c-53.020 0-96-42.98-96-96v-576c0-53.020 42.98-96 96-96h832c53.020 0 96 42.98 96 96v448c0 53.020-42.98 96-96 96z" />
<glyph unicode="&#xe91b;" glyph-name="globe1" horiz-adv-x="992" d="M673 618.667c-29 178.6-97.4 304-177 304s-148-125.4-177-304h354zM304 426.667c0-44.4 2.4-87 6.6-128h370.6c4.2 41 6.6 83.6 6.6 128s-2.4 87-6.6 128h-370.6c-4.2-41-6.6-83.6-6.6-128zM953.4 618.667c-57.2 135.8-173 240.8-316 283.2 48.8-67.6 82.4-169.4 100-283.2h216zM354.4 901.867c-142.8-42.4-258.8-147.4-315.8-283.2h216c17.4 113.8 51 215.6 99.8 283.2zM974.8 554.667h-229.4c4.2-42 6.6-85 6.6-128s-2.4-86-6.6-128h229.2c11 41 17.2 83.6 17.2 128s-6.2 87-17 128zM240 426.667c0 43 2.4 86 6.6 128h-229.4c-10.8-41-17.2-83.6-17.2-128s6.4-87 17.2-128h229.2c-4 42-6.4 85-6.4 128zM319 234.667c29-178.6 97.4-304 177-304s148 125.4 177 304h-354zM637.6-48.533c142.8 42.4 258.8 147.4 316 283.2h-216c-17.6-113.8-51.2-215.6-100-283.2zM38.6 234.667c57.2-135.8 173-240.8 316-283.2-48.8 67.6-82.4 169.4-100 283.2h-216z" />
<glyph unicode="&#xe91c;" glyph-name="headset" d="M384 522.667c0 35.34-28.66 64-64 64h-32c-70.7 0-128-57.3-128-128v-96c0-70.7 57.3-128 128-128h32c35.34 0 64 28.66 64 64v224zM736 234.667c70.7 0 128 57.3 128 128v96c0 70.7-57.3 128-128 128h-32c-35.34 0-64-28.66-64-64v-224c0-35.34 28.66-64 64-64h32zM512 938.667c-285.64 0-502.84-237.66-512-512v-32c0-17.68 14.32-32 32-32h32c17.68 0 32 14.32 32 32v32c0 229.38 186.62 416 416 416s416-186.62 416-416h-0.24c0.16-4.86 0.24-331.44 0.24-331.44 0-46.7-37.86-84.56-84.56-84.56h-203.44c0 53.020-42.98 96-96 96h-64c-53.020 0-96-42.98-96-96s42.98-96 96-96h363.44c99.72 0 180.56 80.84 180.56 180.56v331.44c-9.16 274.34-226.36 512-512 512z" />
</font>
</defs>
</svg>
